<?xml version="1.0" standalone="no"?>
<!DOCTYPE svg PUBLIC "-//W3C//DTD SVG 1.1//EN" "http://www.w3.org/Graphics/SVG/1.1/DTD/svg11.dtd" >
<svg xmlns="http://www.w3.org/2000/svg">
<metadata>Generated by IcoMoon</metadata>
<defs>
<font id="icomoon" horiz-adv-x="512">
<font-face units-per-em="512" ascent="480" descent="-32" />
<missing-glyph horiz-adv-x="512" />
<glyph unicode="&#x20;" d="" horiz-adv-x="256" />
<glyph unicode="&#xe000;" d="M257.053-19.569c-41.205 0-80.003 10.025-114.19 27.67l-143.866-39.901 42.909 135.243c-22.056 37.195-34.688 80.505-34.688 126.923 0 137.95 111.884 249.834 249.835 249.834s249.834-111.884 249.834-249.834-111.884-249.935-249.834-249.935zM257.053 439.196c-115.393 0-208.931-93.437-208.931-208.83 0-45.215 14.437-87.021 38.899-121.208l2.105-1.604c0 0-26.968-73.587-28.673-77.798 0 0 61.256 19.65 78.199 23.76l4.912 1.504c32.683-21.154 71.582-33.485 113.388-33.485 115.393 0 208.93 93.537 208.93 208.93s-93.436 208.731-208.829 208.731zM314.398 107.454c-139.254 32.482-180.258 159.705-180.258 159.705-4.010 59.451 20.452 73.687 20.452 73.687 18.246 27.871 45.014-4.11 45.014-4.11s11.93-29.475 16.341-41.004c4.411-11.529-4.11-20.452-4.11-20.452l-12.331-16.341c-6.316-8.121-4.11-16.341-4.11-16.341 12.933-35.39 67.171-69.075 81.908-77.798 14.737-8.722 27.169 9.324 36.894 20.452s24.562 4.11 24.562 4.11 26.066-13.234 36.894-20.452 8.221-16.341 8.221-16.341c0.2-52.835-69.477-45.115-69.477-45.115z" />
<glyph unicode="&#xe001;" d="M152.343 262.495c-36.619-4.357-63.351-40.977-55.641-70.641 7.961-30.502 32.010-49.775 68.546-44.831 37.792 5.112 69.384 37.122 65.362 65.362-6.034 42.233-36.955 55.054-78.267 50.11zM141.366 172.246c-13.324-2.011-21.201 5.531-23.212 16.676-1.76 10.056 7.123 22.541 18.687 25.055 13.743 3.017 24.972-0.251 28.407-15.167 2.514-10.894-9.302-24.385-23.882-26.564zM176.644 208.698c-4.609-0.754-7.458 2.095-8.128 6.452-0.67 4.106 2.682 9.218 7.039 10.056 5.028 1.006 8.966-0.587 9.72-6.62 0.587-4.19-3.687-9.134-8.631-9.888zM324.881 282.523c-14.832 3.352-8.882 16.089-8.882 16.089 23.212 83.294-85.138 43.239-85.138 43.239-32.429-12.989-20.53 4.441-20.53 4.441 15.335 59.915-29.832 55.725-29.832 55.725-84.719-1.592-152.511-107.846-152.511-107.846-110.193-168.935 134.578-189.968 134.578-189.968 209.995 1.592 211.755 123.014 211.755 123.014 0 42.066-49.44 55.306-49.44 55.306zM299.91 212.133c-2.765-48.016-73.322-84.635-144.885-83.881-68.881 0.67-110.445 34.105-111.115 81.283-0.67 47.345 67.121 90.92 137.343 90.92 70.557-0.083 121.757-35.53 118.657-88.322zM354.713 311.517c13.827 0 15.586 18.268 15.586 18.268 4.693 40.139-29.832 57.066-29.832 57.066-19.944 10.894-47.262 8.045-47.262-8.882s20.949-12.905 20.949-12.905c33.603 0.922 27.653-35.698 27.653-35.698-2.513-4.023-0.837-17.849 12.906-17.849zM365.858 439.475c-43.239 18.686-86.479 15.418-86.479-5.782 0-21.284 22.29-16.089 22.29-16.089 42.318 9.134 73.071-24.050 73.071-24.050 23.966-24.217 21.871-57.066 21.871-57.066-0.251-10.894-3.603-20.949-3.603-20.949-4.693-14.162 6.201-20.949 6.201-20.949 29.832-16.676 30.335 42.318 30.335 42.318 0.251 34.859-20.447 83.88-63.686 102.567z" />
<glyph unicode="&#xe002;" d="M463.95 72.426l13.342-50.558c0.401-10.031-9.129-3.009-9.129-3.009l-45.342 30.194c-19.661-7.624-41.429-11.937-64.401-11.937-85.868 0-155.386 59.386-155.386 132.514s69.618 132.514 155.386 132.514 155.386-59.386 155.386-132.514c0-38.421-19.261-73.029-49.856-97.204zM301.944 241.253c-10.934 0-19.762-8.828-19.762-19.762s8.828-19.762 19.762-19.762c10.934 0 19.762 8.828 19.762 19.762 0.1 10.935-8.828 19.762-19.762 19.762zM414.696 241.253c-10.934 0-19.762-8.828-19.762-19.762s8.828-19.762 19.762-19.762 19.762 8.828 19.762 19.762c0.1 10.935-8.828 19.762-19.762 19.762zM187.687 171.836c0-11.737 1.705-23.072 4.715-34.006-2.608-0.1-5.216-0.201-7.824-0.201-21.266 0-41.63 3.11-60.489 8.727l-63.799-38.42c-9.63-2.809-5.216 8.125-5.216 8.125l18.759 53.467c-43.739 28.39-72.027 73.13-72.027 123.587 0 85.768 81.855 155.386 182.871 155.386 91.285 0 166.922-56.878 180.564-131.21-2.307 0.1-4.614 0.1-6.922 0.1-94.194 0.101-170.632-65.103-170.632-145.555zM116.063 369.253c-12.639 0-22.871-10.232-22.871-22.871s10.232-22.871 22.871-22.871 22.871 10.232 22.871 22.871-10.232 22.871-22.871 22.871zM259.31 366.244c-12.639 0-22.871-10.232-22.871-22.871s10.232-22.871 22.871-22.871c12.639 0 22.871 10.232 22.871 22.871s-10.231 22.871-22.871 22.871z" />
<glyph unicode="&#xe003;" d="M79.458 350.262h-66.261c0 0-20.672-2.123-11.074-22.149 0 0 94.131-235.42 214.379-235.42h39.775c0 0 21.041-2.676 21.041 18.826s9.875 57.402 29.808 37.56c20.026-19.841 35.345-36.453 35.345-36.453s14.212-21.041 43.097-21.041 60.816 0 60.816 0 58.14-0.738 3.322 56.386-48.634 47.527-48.634 47.527-13.012 14.581 3.322 33.131c16.335 18.642 68.476 89.425 68.476 109.451 0 0-0.646 12.182-16.611 12.182s-83.98 0-83.98 0-9.413 0.185-14.397-12.182c-4.983-12.274-47.988-107.236-69.583-107.236 0 0-12.182 0.369-12.182 28.701s0 64.138 0 64.138 13.474 38.668-36.453 38.668-44.205 0-44.205 0-56.294-3.322-35.345-22.149c18.642-16.796 24.271-14.581 24.271-51.957s-3.415-57.494-13.289-57.494c0 0-26.301 6.921-67.461 99.484 0.186 0.186-1.383 20.304-24.177 20.027z" />
<glyph unicode="&#xe004;" d="M199.647 36.241c-15.518 0-30.141 6.167-41.183 17.309l-139.962 141.653c-10.942 11.141-17.010 25.963-17.010 41.68s6.068 30.539 17.11 41.68l39.89 40.487c11.042 11.141 25.665 17.309 41.183 17.309s30.141-6.167 41.183-17.309l58.79-59.486 168.809 170.799c11.042 11.141 25.665 17.309 41.183 17.309s30.141-6.167 41.183-17.309l39.989-40.486c22.68-22.979 22.68-60.382 0-83.36l-249.982-252.967c-10.942-11.141-25.565-17.309-41.183-17.309z" />
<glyph unicode="&#xe005;" d="M475.1 114.4c-16.4 8.7-83.9 50.5-83.9 148.1v89.7c68.5-11 120.8-70.3 120.8-141.8 0-36.9-14-70.6-36.9-96zM341.3 262.5c0 0 7.1-100.7-83.8-143.2-0.5 0.6-1.1 1.2-1.6 1.9 19.5 24.5 31.2 55.6 31.2 89.3s-11.6 64.7-31.1 89.3c21 26.3 51 45.1 85.3 51.7v-89zM256 121.1c-1.1-1.4-2.3-2.8-3.5-4.2-0.5-0.2-0.9-0.4-1.4-0.6-20.7 11.9-80.4 54.3-80.4 146.2v89c34.4-6.6 64.4-25.3 85.3-51.7-19.5-24.5-31.2-55.6-31.2-89.3s11.7-64.9 31.2-89.4zM143.6 66.8c-24.1 0-46.8 6-66.8 16.5 23.8 14.7 68.9 48.3 68.9 91.7 0 0 15.6-65.1 62.8-92.7-19.5-9.9-41.5-15.5-64.9-15.5zM33.9 117.8c-21.1 25-33.9 57.3-33.9 92.6 0 71.5 52.3 130.8 120.7 141.8v-89.7c0 0 7.2-103-86.8-144.7zM366.3 175c0 0 16-66.9 64.8-93.8-18.9-9.2-40.2-14.4-62.7-14.4-25 0-48.5 6.4-69 17.7 24.2 15.3 66.9 48.3 66.9 90.5z" />
<glyph unicode="&#xe006;" d="M381.853 164.17l3.496-20.676c-78.908-14.083-155.418 11.986-155.418 11.986l151.822 108.473c-142.333 30.364-273.38-4.295-273.38-4.295 89.895 7.092 190.876-12.985 190.876-12.985l-160.412-117.262c107.075-17.679 190.677-9.888 248.209 3.995l0.3-1.998c80.306 17.679 36.857-2.297 1.998-11.886l22.773-133.244-164.407 83.203-152.222-87.597 28.467 178.391-123.955 125.353 172.498 19.677 83.502 166.904 70.417-168.103 185.583-18.478-130.147-121.458z" />
<glyph unicode="&#xe008;" d="M387.689 275.361l-191.645 185.782c-23.651 23.748-59.908 25.898-80.92 4.789-21.012-21.012-18.959-57.367 4.789-81.017l153.922-153.923-154.020-153.922c-23.65-23.748-25.8-60.005-4.789-81.017s57.269-18.862 81.017 4.789l191.646 185.782c10.164 10.065 36.355 52.382 0 88.737z" />
<glyph unicode="&#xe009;" d="M159.624 480.2c-35.74 0-64.753-29.013-64.753-64.753v-382.494c0-35.74 29.013-64.753 64.753-64.753s64.753 29.013 64.753 64.753v382.494c-0.001 35.74-29.014 64.753-64.753 64.753zM353.38 480.2c-35.74 0-64.753-29.013-64.753-64.753v-382.494c0-35.74 29.013-64.753 64.753-64.753s64.753 29.013 64.753 64.753v382.494c0 35.74-29.013 64.753-64.753 64.753z" />
<glyph unicode="&#xe00a;" d="M506.311 68.404l-111.582 111.582c13.573 27.646 21.159 58.785 21.159 91.621 0 115.076-93.218 208.393-208.293 208.393-115.076 0-208.393-93.317-208.393-208.393 0-115.075 93.318-208.393 208.393-208.393 32.936 0 64.075 7.685 91.821 21.258l111.482-111.482c4.99-4.99 12.975-4.99 17.865 0l77.549 77.549c4.89 4.891 4.89 12.875-0.001 17.865zM97.11 271.607c0 60.981 49.503 110.484 110.484 110.484s110.484-49.503 110.484-110.484c0-60.981-49.404-110.484-110.484-110.484s-110.484 49.404-110.484 110.484z" />
<glyph unicode="&#xe00b;" d="M153.39 247.119l-15.079 105.056h-67.008v-223.195h49.732v144.303l19.473-144.303h30.259l19.473 146.3v-146.3h47.535v223.195h-69.106l-15.279-105.056zM0 128.98h54.026v223.195h-54.026v-223.195zM486.035 298.149h-21.571c-11.584 0-17.975-8.488-21.571-17.077v71.003h-51.829v-223.195h51.829v17.376c8.389-16.477 25.965-17.376 25.965-17.376h15.079c25.066 0 28.062 30.259 28.062 30.259l0.001 115.242c0 20.572-25.965 23.768-25.965 23.768zM462.268 166.828c0-5.393-4.394-9.687-9.687-9.687-5.393 0-9.687 4.394-9.687 9.687v93.572c0 5.393 4.394 9.687 9.687 9.687 5.393 0 9.687-4.394 9.687-9.687v-93.572zM373.689 304.64c0 53.427-62.614 47.535-62.614 47.535h-56.123v-222.995h73.4c50.631 0 45.338 36.75 45.338 36.75l-0.001 138.71zM324.057 308.834v-132.319c0-13.182-17.276-10.785-17.276-10.785v153.89c18.374 0 17.276-10.786 17.276-10.786z" />
<glyph unicode="&#xe00c;" d="M383.226 96.974l-0.1-127.775 127.976-0.001-0.1 127.875-127.776-0.099zM511.002 480.999l-127.775-0.1-0.1-127.775 127.975-0.001-0.1 127.876zM383.226 288.936l-0.1-127.775h127.976l-0.1 127.875-127.776-0.1zM191.264 96.974l-0.1-127.775h127.975l-0.1 127.875-127.775-0.1zM191.264 480.899l-0.1-127.775h127.975l-0.1 127.875-127.775-0.1zM191.264 288.936l-0.1-127.775h127.975l-0.1 127.875-127.775-0.1zM-0.799 96.974l-0.1-127.775h127.975l-0.1 127.875-127.775-0.1zM-0.799 480.899l-0.1-127.775h127.975l-0.099 127.875-127.776-0.1zM-0.799 288.936l-0.1-127.775h127.975l-0.1 127.875-127.775-0.1z" />
<glyph unicode="&#xe00d;" d="M474.61 138.057l-92.747 92.552 92.358 92.358c29.329 29.329 29.329 77.014 0 106.343l-26.609 26.611c-29.329 29.329-77.014 29.329-106.343 0l-92.455-92.455-93.912 93.718c-29.427 29.426-77.209 29.426-106.635-0.001l-26.61-26.513c-29.426-29.426-29.426-77.013 0-106.44l94.009-93.815-93.524-93.524c-29.329-29.329-29.329-77.014 0-106.343l26.61-26.61c29.329-29.329 77.014-29.329 106.343 0l93.621 93.621 92.649-92.455c29.426-29.329 77.111-29.329 106.537 0l26.61 26.61c29.524 29.33 29.524 77.014 0.098 106.343z" />
<glyph unicode="&#xe00e;" d="M511.401 160.649l-0.099 319.85h-511.801l-0.1-95.776h95.975v-223.975l416.025 0.001zM191.352 384.624h223.975v-128h-223.975v128zM223.376 96.799c-35.317 0-63.95-28.633-63.95-63.95s28.633-63.95 63.95-63.95c35.317 0 63.95 28.633 63.95 63.95 0.1 35.317-28.533 63.95-63.95 63.95zM415.327 96.799c-35.317 0-63.95-28.633-63.95-63.95s28.633-63.95 63.95-63.95c35.317 0 63.95 28.633 63.95 63.95s-28.633 63.95-63.95 63.95z" />
<glyph unicode="&#xe00f;" d="M79.007 130.11v-0.1h-79.906l-0.1-64.724h512l-0.1 64.824h-431.894zM79.007 256.962v-0.1h-79.906l-0.1-64.724h512l-0.1 64.824h-431.894zM511.001 384.812l-511.9-0.1-0.1-64.724h512v64.824z" />
<glyph unicode="&#xe010;" d="M159.956 64.394l0.1-0.2h-160.056l-0.1-95.794h512l-0.1 95.794-351.844 0.2zM159.956 256.381l0.1-0.2h-160.056l-0.1-95.794h512l-0.1 95.794-351.844 0.2zM511.8 448.169h-511.8l-0.1-95.794h512l-0.1 95.794z" />
<glyph unicode="&#xe011;" d="M449.551 375.044h-136.038v-30.394h136.038v30.394zM499.393 179.391c12.607 138.775-104.472 139.752-104.472 139.752-131.249 0-122.747-131.249-122.747-131.249 0-116.102 119.033-114.245 119.033-114.245 90.985 0 106.915 76.521 106.915 76.521h-61.96c-10.261-24.921-38.896-26.778-38.896-26.778-72.515 0-63.23 55.901-63.23 55.901l165.357 0.001zM390.035 268.031c47.887 0 47.398-48.571 47.398-48.571h-103.299c0 16.907 8.014 48.571 55.901 48.571zM206.598 240.765c0 0 38.896 15.343 38.896 63.23 0 0 6.157 81.408-97.24 81.408h-148.254v-311.070h140.925c0 0 112.974-9.284 112.974 99.683 0.098 0 3.518 49.256-47.301 66.749zM61.96 330.773h76.521c0 0 43.782 5.473 43.782-34.010 0 0 4.984-34.010-43.782-34.010l-76.521 0.001v68.019zM135.159 129.061h-73.199v82.287h73.199c0 0 52.969 6.646 52.969-41.144-0.001 0.001 6.059-41.143-52.969-41.143z" />
<glyph unicode="&#xe600;" d="M63.279-32.787l31.75 288.007h32.268v128.004c0 96 128.33 95.963 128.33 95.963 127.749 0 127.73-95.877 127.73-95.877v-128.090h31.696l32.667-288.007h-384.441zM351.375 383.557c0 0 0 63.667-96 63.667 0 0-96 0-96-64v-128h192v128.333zM383.5 222.7h-256l-29.748-224h315.827l-30.079 224zM255.375 190.72c17.95 0 32.5-14.551 32.5-32.5s-14.551-32.5-32.5-32.5-32.5 14.55-32.5 32.5c0 17.949 14.551 32.5 32.5 32.5z" />
<glyph unicode="&#xe601;" d="M401.5 128.719v-0.019l-295 0.098c-59.492 2.363-107 51.33-107 111.402 0 61.58 49.92 111.5 111.5 111.5s111.5-49.92 111.5-111.5c0-31.644-13.184-60.205-34.355-80.5h134.71c-21.171 20.295-34.355 48.856-34.355 80.5 0 61.58 49.92 111.5 111.5 111.5s111.5-49.92 111.5-111.5c0-61.078-49.112-110.677-110-111.481zM191.5 240.2c0 44.459-36.041 80.5-80.5 80.5s-80.5-36.041-80.5-80.5 36.041-80.5 80.5-80.5 80.5 36.041 80.5 80.5zM400 320.7c-44.459 0-80.5-36.041-80.5-80.5s36.041-80.5 80.5-80.5 80.5 36.041 80.5 80.5-36.041 80.5-80.5 80.5z" />
<glyph unicode="&#xe602;" d="M32.26 320.022v65.248c0 18.777 15.211 31.559 33.972 31.559h125.803v63.39h127.010v-63.389h126.725c18.774 0 33.971-12.781 33.971-31.559v-65.248h-447.481zM448.5 384.7h-161v64h-64v-64h-160v-32h385v32zM479.486-31.285h-447.048v318.861h447.048v-318.861zM447.5 256.7h-384v-256h384v256z" />
<glyph unicode="&#xe603;" d="M288 96.2c0-17.673-14.327-32-32-32s-32 14.327-32 32c0 17.673 14.327 32 32 32s32-14.327 32-32zM320 206.064v262.136c0 6.627-5.373 12-12 12h-104c-6.627 0-12-5.373-12-12v-20.721c-0.854 0.193-1.739 0.304-2.651 0.304h-17.166c-6.627 0-12-5.373-12-12v-7.167c0-6.627 5.373-12 12-12h17.166c0.912 0 1.797 0.111 2.651 0.304v-33.44c-0.854 0.193-1.739 0.304-2.651 0.304h-17.166c-6.627 0-12-5.373-12-12v-7.167c0-6.627 5.373-12 12-12h17.166c0.912 0 1.797 0.111 2.651 0.304v-33.44c-0.854 0.193-1.739 0.304-2.651 0.304h-17.166c-6.627 0-12-5.373-12-12v-7.167c0-6.627 5.373-12 12-12h17.166c0.912 0 1.797 0.111 2.651 0.304v-33.106c-0.854 0.193-1.739 0.304-2.651 0.304h-17.166c-6.627 0-12-5.373-12-12v-7.167c0-6.627 5.373-12 12-12h17.166c0.912 0 1.797 0.111 2.651 0.304v-19.185c-38.259-22.132-64-63.491-64-110.869 0-70.692 57.308-128 128-128s128 57.308 128 128c0 47.373-25.743 88.729-64 110.861zM256-1.634c-53.48 0-96.833 43.355-96.833 96.834 0 42.052 26.808 77.837 64.264 91.213v3.787h0.075v246c0 6.627 5.373 12 12 12h40c6.627 0 12-5.373 12-12v-246h0.041v-3.427c37.99-13.085 65.287-49.141 65.287-91.573 0-53.479-43.354-96.834-96.834-96.834z" />
<glyph unicode="&#xe604;" d="M496.069 479.599l-147.113-0.047c0 0-25.727 4.429-40.567-9.866l-293.787-296.593c0 0-31.321-27.495-0.052-59.966l128.24-133.098c0 0 27.698-28.76 57.375-0.158l285.869 281.704c0 0 24.565 25.109 24.938 45.138l0.028 156.313c0 0-2.621 17.704-14.931 16.573zM476.219 312.325c0.564-15.788-17.319-30.115-17.319-30.115l-263.436-263.045c-26.234-25.305-47.974-2.713-47.974-2.713l-97.461 101.262c-23.763 24.705 3.758 49.204 3.758 49.204l261.613 265.379c13.119 12.648 34.050 10.608 34.050 10.608l115.347 0.372c10.217 1.69 11.465-12.215 11.465-12.215l-0.043-118.737zM334.229 369.939c-18.961-18.391-19.501-48.591-1.206-67.454s48.497-19.246 67.459-0.856c18.962 18.391 19.502 48.591 1.206 67.454-18.294 18.863-48.497 19.246-67.459 0.856z" />
<glyph unicode="&#xe605;" d="M447.5 126.686v65.514h0.5v32.5h-113.713c-7.605 36.265-39.762 63.5-78.287 63.5-38.703 0-70.984-27.485-78.396-64h-81.604v97.604c36.515 7.413 64 39.694 64 78.396 0 44.183-35.817 80-80 80s-80-35.817-80-80c0-38.525 27.235-70.682 63.5-78.288v-108.212h0.5v-21h113.514c7.22-36.763 39.608-64.5 78.486-64.5 38.703 0 70.983 27.484 78.396 64h82.104v-65.514c-36.763-7.219-64.5-39.608-64.5-78.486 0-44.183 35.817-80 80-80s80 35.817 80 80c0 38.878-27.737 71.267-64.5 78.486zM32 400.2c0 26.51 21.49 48 48 48s48-21.49 48-48-21.49-48-48-48-48 21.49-48 48zM256 160.2c-26.51 0-48 21.49-48 48s21.49 48 48 48 48-21.49 48-48-21.49-48-48-48zM432 0.2c-26.51 0-48 21.49-48 48s21.49 48 48 48 48-21.49 48-48-21.49-48-48-48z" />
<glyph unicode="&#xe606;" d="M160.5 479.7h32v-32c0-35.346 28.654-64 64-64s64 28.654 64 64v32h32c96 0 159.5 0 159.5 0v-192h-96v-319.5h-320.5v319.5h-95v192c0 0 64 0 160 0zM375.5 447.7h-23c0 0 0-96-96-96s-96 96-96 96c-2.702 0-8.692 0-21 0-32.5 0-107 0-107 0v-128h95v-319.5h256.5v319.5h96.5v128h-105z" />
<glyph unicode="&#xe607;" d="M481.241 288.736h-65.515v122.387c0 16.986-14.771 36.758-31.758 36.758h-257.814c-16.986 0-30.758-19.772-30.758-36.758v-122.387h-65.516c-16.986 0-30.755-13.771-30.755-30.758v-227.705c0-16.986 13.769-30.755 30.755-30.755h451.362c16.988 0 30.758 13.769 30.758 30.755v227.705c-0.001 16.988-13.771 30.758-30.759 30.758zM127.532 416.742h257.061v-128.72h-257.061v128.72zM32.261 31.41l-1 224.546h447.41l1.289-224.547-447.699 0.001zM384.124 191.282h32v32h-32v-32z" />
<glyph unicode="&#xe608;" d="M127.377-0.3l0.133 448 288.113-223.793-288.246-224.207zM159.5 64.7l208 160-208 159v-319z" />
<glyph unicode="&#xe609;" d="M255.891 255.457c52.796 0 95.604 43.146 95.604 96.372s-42.808 96.371-95.604 96.371c-52.785 0-95.583-43.145-95.583-96.371s42.797-96.372 95.583-96.372zM256 416.7c35.346 0 64-28.877 64-64.5s-28.654-64.5-64-64.5c-35.347 0-64 28.877-64 64.5s28.653 64.5 64 64.5zM256 224.7c-127 0-159.5-96.5-159.5-223.5 0-0.167 0.005-0.333 0.005-0.5h318.99c0 0.167 0.005 0.333 0.005 0.5 0 127-30.5 223.5-159.5 223.5zM380.266 32.811h-250.032c0 0.119-0.004 0.237-0.004 0.357 0 94.531 32.27 159.42 125.77 159.42 95.494 0 124.27-64.389 124.27-159.42 0-0.119-0.004-0.238-0.004-0.357z" />
<glyph unicode="&#xe60a;" d="M351.821 192.018v-31.97h31.969v31.97h-31.969zM319.847 223.987v-31.969h31.975v31.969h-31.975zM287.879 255.955v-31.968h31.968v31.968h-31.968zM255.909 287.929v-31.974h31.97v31.974h-31.97zM223.954 223.987h31.955v31.968h-31.955v-31.968zM192.001 192.018h31.953v31.969h-31.953v-31.969zM160 160.049h32v31.97h-32v-31.97z" />
<glyph unicode="&#xe60b;" d="M383.79 224.365v31.97h-31.97v-31.97h31.97zM351.822 256.335v31.969h-31.975v-31.969h31.975zM319.848 288.304v31.966h-31.969v-31.967h31.969zM255.909 320.27h31.97v31.975h-31.97v-31.975zM223.954 288.304h31.955v31.966h-31.955v-31.966zM192.001 256.334h31.953v31.97h-31.953v-31.97zM160 224.365h32v31.97h-32v-31.97zM128.046 224.365v-31.969h31.954v31.969h-31.954zM415.791 192.395v31.969h-32.001v-31.969h32.001zM447.729 160.424v31.972h-31.938v-31.972h31.938zM96.092 160.424h31.955v31.972h-31.955v-31.972zM448 160.335h32v-32h-32v32zM480 128.335h32v-32h-32v32zM64.092 160.335h32v-32h-32v32zM32.092 128.335h32v-32h-32v32z" />
<glyph unicode="&#xe60c;" d="M351.821 224.018v-31.97h31.969v31.97h-31.969zM319.847 255.987v-31.969h31.975v31.969h-31.975zM287.879 287.955v-31.968h31.968v31.968h-31.968zM255.909 319.929v-31.974h31.97v31.974h-31.97zM223.954 255.987h31.955v31.968h-31.955v-31.968zM192.001 224.018h31.953v31.969h-31.953v-31.969zM160 192.049h32v31.97h-32v-31.97zM128.047 160.079h31.953v31.97h-31.954v-31.97zM383.79 192.049v-31.97h32.001v31.97h-32.001zM415.791 160.079v-31.971h31.938v31.971h-31.938zM96.092 128.108h31.955v31.971h-31.955v-31.971z" />
<glyph unicode="&#xe60d;" d="M64 224.7h-32v-32h32v32zM128 128.7v32h-32v31h-32v-32h32v-31h32zM128 127.7v-32h32v32h-32zM160 63.7h32v32h-32v-32zM192 95.7h32v32h-32v-32zM225 128.7h32v32h-32v-32zM288 192.7h-31v-32h32v32h31v32h-32v-32zM320 224.7h32v32h-32v-32zM353 255.7h32v32h-32v-32zM416 319.7h-31v-32h32v32h31v32h-32v-32zM449 383.7v-32h32v32h-32z" />
<glyph unicode="&#xe60e;" d="M479.39 32.656h-443.49c-34.414 0-36.9 29.618-36.9 29.618v273.218c0 18.423 12.011 17.423 12.011 17.423h53.001v49.458c0 10.404 9.613 14.408 9.613 14.408h417.184c20.81 0 21.602-12.802 21.602-12.802v-339.314c-0.001-35.715-33.021-32.009-33.021-32.009zM31.977 320.265v-239.010c0 0-0.143-17.602 16.19-17.602 0 0 15.715-0.953 15.715 17.404l0.803 239.208h-32.708zM480.809 384.050h-385.252v-319.73h369.438c0 0 15.813-3.62 15.813 19.203v300.527zM287.624 224.188h160.649v-128.538h-160.649v128.538zM288 288.2h160v-32h-160v32zM288 352.2h160v-32h-160v32zM127 128.2h129v-32h-129v32zM127 192.2h129v-32h-129v32zM126.833 352.2h130.461v-128.562h-130.461v128.562z" />
<glyph unicode="&#xe60f;" d="M332.681 335.626c-86.949 200.451-140.782 191.899-161.532-25.581-217.491-20.739-226.010-74.606-25.581-161.544-47.482-213.22 1.096-237.983 145.714-74.259 188.153-111.031 226.691-72.471 115.647 115.66 163.759 144.64 139.007 193.206-74.248 145.724zM285.473 109.713c-155.046-193.773-145.676-105.052-109.873 56.138-234.128 89.723-144.705 106.445 19.289 122.124 15.646 164.41 29.237 249.875 121.799 19.338 160.8 35.896 249.464 38.181 55.985-110.164 83.731-142.222 134.673-226.373-87.2-87.436z" />
<glyph unicode="&#xe610;" d="M448.395 480.2l-288.509-85.577v-298.065l0.448-0.029c-31.094 0-95.965-11.205-95.965-73.416 0 0 1.079-54.912 65.673-54.912 0 0 62.21-0.516 62.21 94.668l-0.218-0.016v309.485l224.751 63.102v-243.463l-0.59-0.045c0 0-93.449-2.684-93.449-74.414 0 0 1.080-53.912 65.675-53.912 0 0 60.146-1.414 60.146 96.803l-0.172 319.791z" />
<glyph unicode="&#xe611;" d="M437.141 415.727h-360.807c-41.688 0-75.482-33.795-75.482-75.482v-232.312c0-41.686 33.795-75.482 75.482-75.482h360.807c41.686 0 75.482 33.797 75.482 75.482v232.312c0 41.687-33.797 75.482-75.482 75.482zM191.654 159.389v128.663l160.643-63.443-160.643-65.22z" />
<glyph unicode="&#xe612;" d="M457.771 225.974l-103.431-30.951c-53.102-14.523-29.325 37.324-29.325 37.324l57.692 111.068c18.792 35.285 78.028-45.742 78.028-45.742 43.52-54.699-2.964-71.699-2.964-71.699zM351.382 159.988l113.653-32.33c39.866-11.668-14.582-92.307-14.582-92.307-39.953-61.651-65.953-24.651-65.953-24.651l-57.764 104.956c-25.236 50.044 24.646 44.332 24.646 44.332zM223.905 256.481l-93.973 151.575c-26.535 42.295 79.408 66.695 79.408 66.695 81.070 22.084 77.778-37.374 77.778-37.374l0.539-171.55c-9.157-77.127-54.791-22.995-63.752-9.346zM226.923 162.047l-158.688-34.15c-39.737-12.046-36.151 78.316-36.151 78.316 0 69.888 47.006 46.207 47.006 46.207l153.91-41.72c55-21.5-6.077-48.653-6.077-48.653zM241.557 145.85c41.943 41.35 46.189-15.338 46.189-15.338l0.415-140.87c-0.945-41.545-85.667-9.925-85.667-9.925-66.401 21.791-36.868 61.544-36.868 61.544l75.931 104.589z" />
<glyph unicode="&#xe613;" d="M360.54 352.7h-9.54v-32h31.549l-94.146-86.275-128.756 150.275h65.353l-1 33h-224l1-33h63.366c18.634-22 116.245-141.732 159.12-192.475l-0.486-0.025v-126.5h-64v-34h225v34h-64v126.87c14.814 14.815 72.428 71.952 128.605 128.13h63.395v32h-151.46z" />
<glyph unicode="&#xe614;" d="M408.691 335.294c0 0 31.953-63.881-4.945-154.741l-19.579-54.654-72.972 194.213c0 0-13.777 27.013 31.957 28.098l0.539 1.211h-161.374v-2.297c0 0 30.297 8.229 45.702-32.498l27.611-61.279-63.335-131.249-67.257 193.070c0 0-16.52 31.956 25.322 33.041l-0.541 1.754h-108.657c35.974 82.73 118.415 130.237 214.412 130.237 70.451 0 136.063-16.884 178.926-66.189-11.512-1.978-47.465-22.904-25.809-78.717zM127.786-0.978c-77.286 30.489-125.949 112.408-125.949 200.176 0 23.189 3.414 37.641 9.727 58.785l116.222-258.961zM256.236 162.177l78.877-181.156c-23.982-8.326-49.688-12.82-76.51-12.82-25.801 0-50.646 4.178-73.862 11.926l71.495 182.050zM497.358 289.051c7.462-22.834 16.513-31.232 16.513-56.556 0-86.523-47.011-161.076-116.886-201.453l100.373 258.009z" />
<glyph unicode="&#xe615;" d="M0.429 321.89c0 0 115.227 124.287 144.647 125.754 0 0 45.588 9.813 64.23-32.839 0 0 10.778-27.69 16.167-65.436 0 0 19.627-140.706 36.298-168.194 0 0 14.7-37.243 36.277-12.729 0 0 90.211 96.102 62.761 149.534 0 0-14.778 25.483-72.652 2.94 0 0 28.031 92.305 84.417 115.853 0 0 107.384 44.12 132.883-33.844 0 0 25.498-67.274-19.124-148.677 0 0-111.307-207.891-225.546-248.592 0 0-85.325-48.293-119.149 124.537 0 0-37.514 167.692-63.264 181.659 0 0-9.543 11.764-27.566-1.468l-26.117-22.902-24.262 34.404z" />
<glyph unicode="&#xe616;" d="M228.914 97.795c51.238-4.454 118.479 1 169.245-3.020 44.12-6.687 66.008-66.075 37.097-104.66-23.089-29.748-51.672-21.915-79.747-21.915-51.673 0.867-84.342 0-138.009 0-93 0-152.228 76.418-152.228 186.941-2.663 81.519-0.888 179.538-0.888 261.059 0 45.25 19.616 64 65.68 63.497 39.936 0 61.581-18.247 61.581-49.26 2.23-26.279 0.021-83.44 0.475-109.741 66.378-0.433 127.269-0.33 193.71 0.132 20.391 0 61.999-14.461 61.999-65.78 0-49.348-42.662-63.081-63.976-63.081-67.104-0.787-124.146 0.678-192.319-0.229 0.888-24.939-0.851-35.248 2.265-59.753 4.453-23.597 10.631-31.527 35.115-34.19z" />
<glyph unicode="&#xe617;" d="M179.505 95.326v160.845h-52.372v98.442c0 0 88.404 6.066 98.36 124.572h62.065v-126.562h98.384v-96.885h-95.905v-124.771c0 0 3.13-56.6 61.95-56.33 0 0 28.161-5.329 64.617 22.021v-103.929c0 0-27.157-24.528-101.732-24.528 0-0.001-135.367 5.832-135.367 127.125z" />
<glyph unicode="&#xe618;" d="M257.121 61.331c-26.329 0-51.743 3.143-75.672 8.992-18.622-11.121-103.116-79.516-149.449-101.013 0 0 31.157 105.204 45.013 150.425-47.721 37.074-77.363 88.787-77.363 146.005 0 112.918 115.286 214.46 257.472 214.46 142.188 0 257.47-101.542 257.47-214.46 0-112.884-115.282-204.409-257.471-204.409zM253.472 383.686c-87.299 0-158.106-49.292-158.106-112.492 0-63.201 70.807-110.492 158.106-110.492 87.33 0 163.149 49.293 163.149 112.496 0 63.2-75.815 110.488-163.149 110.488z" />
<glyph unicode="&#xe619;" d="M287 256.2v39c0 10.645-14.355 25-32 25s-32-14.355-32-32v-128c0-52.935-43.065-96-96-96s-96 43.065-96 96v65h64v-59c0-17.645 14.355-32 32-32s32 14.355 32 32v115c0 52.935 43.065 103 96 103s96-50.065 96-96v-32zM351 224.2v-57c0-24.645 14.355-39 32-39s32 14.355 32 32v64h64v-64c0-52.935-43.065-96-96-96s-96 43.065-96 103v57z" />
<glyph unicode="&#xe61a;" d="M492.181 185.863c0.743 67.587-27.727 139.526-83.87 195.67-57.344 57.344-131.164 85.815-199.997 83.778-59.556 25.748-126.091 18.393-168.956-24.471-41.8-41.801-49.831-106.111-26.327-164.509-4.12-70.683 24.312-147.41 83.491-206.589 57.904-57.903 132.61-86.375 202.015-83.716 60.552-27.835 129.115-21.125 172.938 22.697 44.838 44.839 50.826 115.581 20.706 177.14zM377.712 162.419c0-98.676-123.346-92.646-123.346-92.646-120.879 0-124.991 72.91-124.991 72.91 0 28.78 26.862 29.33 26.862 29.33 23.025 0 37.553-19.767 37.553-19.767 23.298-28.507 57.835-26.039 57.835-26.039 59.206 0 57.014 38.374 57.014 38.374 0 30.699-84.424 36.76-84.424 36.76-104.715 26.933-93.195 82.231-93.195 82.231 0 99.773 111.834 94.291 111.834 94.291 116.768 0 122.249-66.236 122.249-66.236 0-27.958-29.41-23.151-29.41-23.151-21.928 0-30.345 11.091-30.345 11.091-24.12 27.41-53.723 26.766-53.723 26.766-61.399 0-55.917-35.633-55.917-35.633 0-26.314 96.484-41.116 96.484-41.116 95.935-21.928 85.52-87.165 85.52-87.165z" />
<glyph unicode="&#xe61b;" d="M0 288.196v-95.347c0 0 224.834 0.853 224.834-225.648h95.494c0-0.001 25.172 320.995-320.328 320.995zM0.259 480.95v-96.42c415.741 0 416.175-417.33 416.175-417.33h95.566c0 538.5-511.741 513.75-511.741 513.75zM64.422 97.045c-36.132 0-65.422-29.294-65.422-65.422 0-36.134 29.29-65.423 65.422-65.423 36.133 0 65.422 29.289 65.422 65.423 0.001 36.128-29.289 65.422-65.422 65.422z" />
<glyph unicode="&#xe61c;" d="M500 250.698c0 32.856-30.408 59.493-67.919 59.493-19.471 0-37.015-7.185-49.396-18.682-27.488 14.548-59.361 24.583-93.726 28.137-0.299 14.117 2.414 67.996 63.759 64.538 0.183-35.225 28.786-63.728 64.055-63.728 35.381 0 64.062 28.685 64.062 64.065s-28.682 64.062-64.062 64.062c-23.843 0-44.627-13.035-55.658-32.356-9.21 0.144-22.382 0.278-39.396 0.278 0 0-63.939 1.611-66.532-95.486-47.773-0.856-91.401-11.812-127.173-30.028-12.417 11.879-30.258 19.337-50.093 19.337-37.511 0-67.92-21.5-67.92-59.493 0-20.745 12.138-38.975 30.52-49.608-5.616-14.53-8.619-29.901-8.619-45.841 0-84.878 108.485-155.687 229.352-155.687s218.848 70.809 218.848 155.687c0 16.272-3.612 32.394-10.286 47.826 18.722 9.285 30.184 25.942 30.184 47.486zM416.171 415.068c17.322 0 31.36-14.040 31.36-31.36 0-17.322-14.038-31.362-31.36-31.362s-31.362 14.040-31.362 31.362c0 17.32 14.040 31.36 31.362 31.36zM37.559 250.847c0 19.522 18.072 35.353 40.361 35.353 10.155 0 19.408-3.31 26.501-8.734 0.832 0.482 1.675 0.936 2.524 1.373-23.32-15.19-42.158-33.846-55.127-54.916-8.719 6.475-14.259 16.125-14.259 26.924zM261.177 31.26c-104.284 0-198.526 53.916-198.526 124.13s94.242 132.13 198.526 132.13c104.283 0 188.823-61.918 188.823-132.131s-84.54-124.129-188.823-124.129zM458.637 224.122c-12.807 19.996-30.857 38.243-52.82 53.381 7.063 5.318 16.22 8.559 26.265 8.559 22.289 0 40.36-15.831 40.36-35.353-0.001-10.611-5.347-20.116-13.805-26.587zM320 225.543c-18.222 0-32.996-14.774-32.996-32.995 0-18.225 14.774-32.996 32.996-32.996 18.223 0 32.996 14.771 32.996 32.996 0 18.22-14.773 32.995-32.996 32.995zM192 159.552c18.223 0 32.996 14.771 32.996 32.996 0 18.221-14.773 32.995-32.996 32.995-18.222 0-32.996-14.774-32.996-32.995 0-18.225 14.774-32.996 32.996-32.996zM328.144 107.945c-80.314-41.645-144.788 0.994-144.788 0.994-11.475 8.497-20.683-0.849-20.683-0.849-7.649-9.774 1.702-19.126 1.702-19.126 25.069-24.646 94.362-25.072 94.362-25.072 66.29 0 91.912 29.746 91.912 29.746 4.675 5.528-1.698 13.174-1.698 13.174-6.801 10.624-20.807 1.133-20.807 1.133z" />
<glyph unicode="&#xe61d;" d="M193.138-19.755c22.946-6.781 36.942-10.463 62.067-10.463 140.933 0.002 255.201 114.25 255.201 255.215 0 140.945-114.267 255.203-255.202 255.203-140.936 0-255.204-114.258-255.204-255.203 0-104.518 68.836-194.26 158.758-233.748 3.28 16.305 38.29 179.982 38.29 179.982s-15.829 29.99-15.162 58.056c0.898 37.808 21.925 66.056 49.212 66.056 23.227 0 34.427-17.414 34.427-38.299 0-23.356-14.882-58.245-22.524-90.573-6.402-27.068 13.563-49.152 40.269-49.152 48.354 0 80.924 62.115 80.924 135.684 0 55.924-37.672 97.805-106.188 97.805-77.42 0-125.652-57.726-125.652-122.23 0-22.215 6.562-37.901 16.824-50.043 4.721-5.561 5.381-7.82 3.681-14.223-1.22-4.701-4.041-16.004-5.201-20.467-1.701-6.48-6.941-8.801-12.783-6.4-35.648 14.562-52.273 53.592-52.273 97.495 0 72.498 61.155 159.419 182.404 159.419 97.445 0 161.562-70.498 161.562-146.196 0-100.115-55.654-174.894-137.695-174.894-27.566 0-57.472 11.904-66.354 28.809 0-0.001-26.5-109.97-29.381-121.833z" />
<glyph unicode="&#xe61e;" d="M97.277 222.733l-62.857-63.566c0 0-34.42 25.106-34.42 130.945 0 0 12.027 190.188 259.265 190.188 0 0 252.735-2.322 252.735-203.418 0 0 0-181.019-249.698-181.019 0 0 5.027-125.915-108.568-125.915 0 0-56.829 3.322-56.829 36.397v58.151c0 0 17.596-31.877 65.438-31.877 0 0 30.056-9.92 30.056 86.827v200.649h63.222v-158.206c0 0 190.342-25.188 190.342 123.963 0 0 2.039 131.423-190.706 131.423 0 0-191.706 11.757-191.706-140.977-0.002 0 0.449-51.174 33.726-53.565z" />
<glyph unicode="&#xe61f;" d="M363.222 289.304c-30.563 0-58.349-11.192-79.002-29.863-14.761 24.391-41.54 40.695-72.129 40.695-17.999 0-34.665-5.662-48.354-15.276-12.199 20.973-34.9 35.083-60.911 35.083-38.899 0-70.433-31.534-70.433-70.433v-120.36h95.445v-65.877h119.927v-94.604h230.914v208.178c0 63.765-51.693 112.457-115.457 112.457zM95.774 352.359c17.544 0 31.767 14.222 31.767 31.767s-14.223 31.767-31.767 31.767-31.767-14.223-31.767-31.767c0-17.545 14.223-31.767 31.767-31.767zM208.282 351.509c26.535 0 48.047 21.512 48.047 48.047s-21.512 48.047-48.047 48.047c-26.536 0-48.047-21.511-48.047-48.047s21.512-48.047 48.047-48.047zM368.524 320.975c43.969 0 79.612 35.643 79.612 79.612s-35.643 79.613-79.612 79.613c-43.97 0-79.613-35.644-79.613-79.613s35.644-79.612 79.613-79.612z" />
<glyph unicode="&#xe620;" d="M267.545 44.031l-226.675 279.242c-32.063 74.974 65.874 132.495 65.874 132.495 78.42 41.662 101.273 8.422 101.273 8.422l226.767-270.756 44.794-225.234-212.033 75.831zM287.411 81.079c0 0 16.282 20.040 1.727 72.64l-128.18 160.835c0 0-22.52-21.030-25.499-44.613l151.952-188.862zM179.3 429.437c0 0-82.985-0.541-106.527-90.315l38.292-44.46c0 0 18.049 73.573 105.783 89.48l-37.548 45.295zM243.808 356.992c-23.718 1.39-56.297-15.141-56.297-15.141l134.147-164.939c54.72-8.89 71.2 0.91 71.2 0.91l-149.050 179.17zM406.874 135.591c0 0-23.603-13.822-64.248-3.363 0 0 9.794-32.896-12.717-66.368l73.601-30.271c0 0 3.614 13.61 19.557 15.752l-16.193 84.25z" />
<glyph unicode="&#xe621;" d="M384.623 0.2v151.997c0 78.214-62.623 70.64-62.623 70.64-38.822 0-64.17-27.433-64.128-51.5v-170.783h-97.298v318.355h98.273v-55.284c24.213 57.461 101.398 55.697 101.398 55.697 124.146 0 121.749-115.274 121.749-115.274v-203.848h-97.371zM79.827 352.959c-26.309 0-47.605 21.327-47.605 47.607 0 26.309 21.296 47.634 47.605 47.634 26.31 0 47.606-21.326 47.606-47.634 0-26.28-21.296-47.607-47.606-47.607zM129.774 0.554h-97.241v318.274h97.241v-318.274z" />
<glyph unicode="&#xe622;" d="M268.602 312.062c-67.036 112.008-186.743 52.779-186.743 52.779-103.359-61.002-78.466-171.995-78.466-171.995 24.607-128.507 144.018-128.507 144.018-128.507 78.339 0 110.965 49.618 110.965 49.618l-33.97 48.080c-23.341-45.925-72.688-34.045-72.688-34.045-111.218 0.847-84.21 139.163-87.013 95.098 0 93.744 71.376 97.398 71.376 97.398 74.419 4.351 96.448-60.101 96.448-60.101l65.108-131.568c49.019-94.721 157.427-57.014 157.427-57.014 66.753 25.836 57.499 96.476 57.499 96.476 1.947 67.253-101.224 90.57-101.224 90.57-41.851 9.115-33.185 58.978 5.433 60.733 45.728 5.115 63.19-32.55 63.19-32.55l32.038 56.077c-32 56.589-112.764 40.134-112.764 40.134-117.736-23.545-100.736-172.545 20.283-190.595 33.006-10.074 29.362-30.954 29.362-30.954-5.21-38.909-41.854-34.743-41.854-34.743-34.39-2.43-66.461 44.311-66.461 44.311s-45.64 101.301-71.964 140.798z" />
<glyph unicode="&#xe623;" d="M424.933-32.8h-337.81c-47.878 0-86.702 38.823-86.702 86.684v339.623c-0.001 47.888 38.823 86.693 86.702 86.693h337.81c47.878 0 86.702-38.805 86.702-86.693v-339.624c0-47.859-38.824-86.683-86.702-86.683zM240.009 320.513c-61.912 0-112.103-50.183-112.103-112.075 0-61.93 50.191-112.103 112.103-112.103 61.911 0 112.103 50.173 112.103 112.103-0.001 61.893-50.192 112.075-112.103 112.075zM399.803 416.253c-26.832 0-48.58-21.749-48.58-48.561 0-26.842 21.748-48.591 48.58-48.591s48.582 21.749 48.582 48.591c0 26.812-21.75 48.561-48.582 48.561z" />
<glyph unicode="&#xe624;" d="M333.055 208.313c0 0-41.146 23.398 6.458 62.93-0.002-0.001 109.72 75.873 7.26 176.72h37.917l39.532 32.237h-150.868c0 0-151.354-3-151.414-121.823 0 0 0.060-110.677 128.471-112.144 0 0-5.293-51.633 21.33-69.384 0 0-175.073 2.42-175.073-114.562 0 0-1.613-93.588 154.093-93.588 0 0 163.778 4.84 163.778 131.507 0.001 0.001 16.944 40.338-81.484 108.107zM192.96 338.782c-21.556 67.563 12.884 99.936 40.241 107.997 27.352 8.060 73.679-6.34 91.893-69.126 18.768-64.677-15.466-102.321-42.817-110.383-27.355-8.060-70.16 11.461-89.317 71.512zM370.353 65.22c0 0-0.066-0.021-0.090-0.027 0.003-0.329 0.019-0.671 0.015-0.995-0.31-28.515-33.593-67.412-98.848-63.425-82.665 5.051-116.542 42.838-116.233 71.353 0 0.025 0.005 0.052 0.005 0.075-0.276 0.070-0.444 0.113-0.444 0.113-12.793 90.937 142.456 87.788 142.456 87.788 2.074-7.262 26.623-21.4 26.623-21.4 51.861-34.231 46.516-73.482 46.516-73.482z" />
<glyph unicode="&#xe625;" d="M255.557 453.052c0 0 24.413 1.181 66.439-11.347 10.795 12.075 34.727 32.251 86.75 38.995 0 0 22.689-63.985 0.334-95.102 22.124-25.583 39.348-59.078 39.348-108.389 0 0-6.937-150.851-149.787-150.851 0 0 22.222-9.459 22.222-57.076v-101.582h-128.724v101.582c0 47.617 22.221 57.076 22.221 57.076-142.851 0-150.787 150.851-150.787 150.851 0 49.311 23.224 81.806 45.348 107.389-33.173 31.102-7.668 95.102-7.668 95.102 52.025-6.744 77.954-25.92 88.749-37.995 41.798 13.678 60.354 11.146 65.555 11.347z" />
<glyph unicode="&#xe626;" d="M127.535 321.672c-53.328 0-96.535-43.206-96.535-96.533 0-53.295 43.207-96.502 96.535-96.502 53.326 0 96.534 43.207 96.534 96.502 0 53.327-43.208 96.533-96.534 96.533zM382.132 321.672c-53.328 0-96.535-43.207-96.535-96.534 0-53.294 43.207-96.501 96.535-96.501 53.326 0 96.533 43.207 96.533 96.501 0 53.328-43.207 96.534-96.533 96.534z" />
<glyph unicode="&#xe627;" d="M384.198 287.848h-95.611l-0.056 72.861c0 18.861 12.473 23.25 21.278 23.25 8.777 0 73.749 0 73.749 0v96l-87.527 0.25c-82.527 0-103.833-78.666-103.833-118.193v-74.167h-64.36v-95.999h64.36c0-109.5 0-224.639 0-224.639h95.389c0 0 0 116.444 0 224.639h96.5l0.111 95.998z" />
<glyph unicode="&#xe628;" d="M481.087 409.060c2.3 113.151-69.274 55.418-69.274 55.418-240.152-244.756-317.115-433.72-317.115-433.72 20.782-57.732 146.236-62.732 146.236-62.732 272.476-0.001 240.153 441.034 240.153 441.034zM37.735 258.973c0 0-37.735-146.273 25.399-193.352l161.711 351.753c0 0-160.845-47.674-187.11-158.401z" />
<glyph unicode="&#xe629;" d="M512 384.981l-158.821 96.219-97.179-96.273-97.179 96.273-158.821-96.219 96.258-97.388-96.258-97.388 158.821-95.22 97.179 95.274 97.179-95.273 158.821 95.219-96.259 97.388 96.259 97.388zM256 190.286l-157.291 97.307 157.291 97.307 157.291-97.307-157.291-97.307zM255.983 160.771l-95.18-97.329-64.641 33.79v-33.759l161.814-94.273 158.821 93.273v34.782l-64.633-33.806-96.181 97.322z" />
<glyph unicode="&#xe62a;" d="M256-30.711c-140.899 0-255.124 114.264-255.124 255.164s114.225 255.124 255.124 255.124c140.9 0 255.125-114.225 255.125-255.125 0-140.899-114.225-255.163-255.125-255.163zM467.604 188.73c0 0 0.23 4.97-131 1.749 0 0 34.519-52.018 37.795-141.166-0.001 0 74.563 35.644 93.205 139.417zM261.733 8.794c0 0 42.687-4 61.327 16.24 0 0 28.106 67.333-22.446 162.059 0 0-101.316-19.46-176.7-127.25 0 0 47.851-51.049 137.819-51.049zM95.563 84.138c0 0 80.746 115.484 187.755 140.638 0 0-3.682 17.65-14.805 31.937 0 0-91.621-31.627-229.4-34.825 0.001 0-7.613-71.188 56.45-137.75zM162.834 412.461c-112.334-28.261-120.138-155.055-120.138-155.055 128.849-2.418 213.358 33.499 213.358 33.499-24.221 71.462-93.22 121.556-93.22 121.556zM200.116 431.883c0 0 69.051-62.849 86.731-126.432 0 0 82.676 37.502 104.554 78.84 0 0-29.989 69.508-191.285 47.592zM421.391 362.193c0 0-34.864-42.157-122.415-89.149 0 0 18.826-38.672 21.099-48.558l147.529-0.073c0 0 23.475 42.118-46.213 137.78z" />
<glyph unicode="&#xe62b;" d="M95.615 287.868h-95.615v-127.202h129.266v223.034h-33.651v-95.832zM95.615 192.143h-63.2v64.375h63.2v-64.375zM159.63 160.666h32.65v127.202h-32.65v-127.202zM159.63 320.544h32.65v31.651h-32.65v-31.651zM383.648 287.868v-127.202h96.852v-64.351h-96.852v-33.501h128.352v225.054h-128.352zM480.5 192.294h-65.352v64.224h65.352v-64.224zM222.649 160.666h96.851v-64.351h-96.851v-33.501h128.351v225.054h-128.351v-127.202zM254.148 256.518h65.352v-64.224h-65.352v64.224z" />
<glyph unicode="&#xe62c;" d="M192.654 223.89c0 0 63.301 15.143 63.301 79.074 0 0 3.211 82.736-103.421 82.736l-154.274-1.244v-320.014h145.565c0 0 112.461-9.953 112.461 93.312 0 0-0.286 66.136-63.632 66.136zM65.089 319.957l72.515-0.622c54.333 0.622 54.277-30.836 54.277-30.836 0-36.799-54.277-32.214-54.277-32.214h-72.515v63.672zM191.725 158.998c0-35.965-50.388-30.812-50.388-30.812h-76.248v62.979l78.114 0.622c54.742 0 48.522-32.789 48.522-32.789zM320.494 384.038v-32.104h159.479v32.104h-159.479zM402.263 319.94c0 0-112.456 12.495-112.456-133.28 0 0-0.593-122.314 115.432-122.314 0 0 82.595-10.646 104.719 65.185h-60.095c0 0-10.114-17.585-42.84-17.585 0 0-54.714-2.245-54.714 65.93h160.029c0-0.001 16.065 142.064-110.075 142.064zM351.688 229.346c0 42.15 48.575 44.167 48.575 44.167 47.6 0 47.385-43.571 47.385-43.571l-95.96-0.596z" />
<glyph unicode="&#xe62d;" d="M-0.283 434.373v-279.184c0 0 14.488-185.88 204.047-185.88h124.736c0 0 182.685 18.594 182.685 198.331 0 0-4.909 183.436-206.257 183.436h-65.915c0 0-46.161 3.016-46.161-46.091 0 0 4.909-48.198 46.161-48.198h67.88c0 0 109.986 8.089 109.986-88.166 0 0 2.963-103.984-108.021-103.984h-109.021c0 0-105.075 2.893-105.075 107.984v269.118c0 0-12.787 39.288-50.11 39.288-0.001 0-44.935-3.44-44.935-46.654z" />
<glyph unicode="&#xe62e;" d="M383.795 195.578c0 78.083 64.89 92.622 64.89 92.622-52.185 112.5-165.526 45.039-165.526 45.039-39.453-18.085-71.511 6.821-71.511 6.821-32.875 12.331-56.711 11.687-56.711 11.687-124.936 0-122.469-153.635-122.469-153.635 0-136.438 102.742-221.921 102.742-221.921 27.122-23.015 76.438 4.11 76.438 4.11 43.565 18.905 80.552 0 80.552 0 114.252-59.179 155.457 116.755 155.457 116.755-64.111 27.946-63.862 98.522-63.862 98.522zM354.805 480.857c0 0-99.209-15.288-97.562-129.537-0.001 0 92.632 7.071 97.562 129.537z" />
<glyph unicode="&#xe62f;" d="M362.697 176.952c94.097 6.366 108.197 55.89 108.197 55.89l-42.57 77.113c-26.886-25.469-67.796-26.714-67.796-26.714-13.65 0-20.185 3.662-23.319 9.645 44.494 7.786 78.319 46.584 78.319 93.307 0 52.332-42.425 94.758-94.757 94.758-52.334 0-96.758-42.426-96.758-94.758 0-20.918 8.904-47.876 26.147-65.039-59.427-54.476-60.842-172.5-60.842-172.5-17.688-50.938-113.686-68.625-113.686-68.625l31.569-111.072c87.728 12.732 180.334 115.486 180.334 115.486 60.842-23.348 107.95-84.801 107.95-84.801l81.68 52.477c-31.861 80.914-114.468 124.833-114.468 124.833zM320.771 448.794c36.23 0 63.601-26.371 63.601-62.602s-27.37-65.602-63.601-65.602c-36.232 0-65.603 29.371-65.603 65.602s29.371 62.602 65.603 62.602zM276.399 118.191c-73.576-96.926-150.169-117.787-150.169-117.787l-17.101 61.107c82.871 8.856 107.073 82.189 107.073 82.189 4.952 111.778 53.062 159.179 53.062 159.179l38.91-9.902c16.707-68.748 107.689-19.592 105.999-20.64l22.934-40.129c-50.734-48.508-121.933-7.345-121.933-7.345l-14.855-34.252c111.181-57.578 144.985-126.223 144.985-126.223l-45.448-31.176c-59.356 71.155-123.457 84.979-123.457 84.979z" />
<glyph unicode="&#xe630;" d="M371.275 139.296c28.905 35.787 46.225 81.319 46.225 130.904 0 115.151-93.349 208.5-208.5 208.5s-208.5-93.349-208.5-208.5 93.349-208.5 208.5-208.5c49.389 0 94.757 17.184 130.479 45.883l139.216-139.216 32.422 31.088-139.842 139.841zM209 94.7c-96.926 0-175.5 78.574-175.5 175.5s78.574 175.5 175.5 175.5 175.5-78.574 175.5-175.5-78.574-175.5-175.5-175.5z" />
<glyph unicode="&#xe631;" d="M480.871 416.238c-15.882-9.72-32.594-22.236-56.136-37.571-23.574-15.334-45.839-33.991-66.827-55.96-20.489-21.467-37.905-45.875-52.223-73.21-14.347-27.342-21.506-57.632-21.506-90.827 0-47.021 9.469-84.988 28.422-113.864 18.938-28.862 50.413-43.316 94.457-43.316 28.163 0 50.306 9.348 66.434 28.041 16.14 18.679 24.194 38.788 24.194 60.292 0 30.214-9.089 63.118-27.266 78.741-18.177 15.609-43.134 23.423-74.883 23.423h-36.871c3.085 26.535 8.328 38.102 15.761 54.684 7.402 16.582 18.543 32.797 33.406 48.619 15.351 16.324 30.458 29.455 45.306 39.426 14.85 9.938 34.305 21.809 58.378 35.594l-30.646 45.928zM192.691 416.238c-15.882-9.72-28.594-22.236-52.136-37.571-23.574-15.334-45.839-33.991-66.827-55.96-20.489-21.467-37.905-45.875-52.223-73.21-14.346-27.343-21.505-57.633-21.505-90.828 0-47.021 9.469-84.988 28.422-113.864 18.938-28.862 50.413-43.316 94.457-43.316 28.163 0 50.306 9.348 66.434 28.041 16.14 18.679 24.194 38.788 24.194 60.292 0 30.214-9.089 63.118-27.266 78.741-18.177 15.609-43.134 23.423-74.883 23.423h-36.871c3.085 26.535 8.328 38.102 15.761 54.684 7.402 16.582 18.543 32.797 33.406 48.619 15.351 16.324 30.458 29.455 45.306 39.426 14.85 9.938 30.305 21.809 54.378 35.594l-30.647 45.929z" />
<glyph unicode="&#xe632;" d="M287.865 287.914h31.971v31.969h-31.971v-31.969zM255.896 255.939h31.969v31.975h-31.969v-31.975zM223.93 223.971h31.967v31.968h-31.967v-31.968zM191.955 192.002h31.975v31.97h-31.975v-31.97zM255.896 160.047v31.955h-31.966v-31.955h31.966zM287.865 128.094v31.953h-31.969v-31.953h31.969zM319.836 96.093v32.001h-31.971v-32.001h31.971z" />
<glyph unicode="&#xe633;" d="M287.88 128.107h-31.969v-31.969h31.969v31.969zM255.911 160.082h-31.969v-31.975h31.969v31.975zM223.941 192.050h-31.968v-31.968h31.968v31.968zM160 224.019v-31.97h31.974v31.97h-31.974zM191.974 255.974v-31.955h31.968v31.955h-31.968zM223.941 287.928v-31.953h31.969v31.953h-31.969zM255.911 319.928v-32h31.969v32h-31.969zM287.88 351.882v-31.954h31.97v31.954h-31.97zM319.85 96.138h-31.97v-32.001h31.97v32.001zM351.82 64.138h-31.97v-31.938h31.971v31.938zM319.85 383.837v-31.955h31.971v31.955h-31.971z" />
<glyph unicode="&#xe634;" d="M469.513 351.44h-117.537v99.708c0 15.892-11.982 28.78-31.894 28.78h-136.195c-11.909 0-24.804-12.888-24.804-26.792v-101.696h-115.597c-32.486 0-43.986-9.969-43.986-43.987v-296.983c0-29.499 15-42.987 43.987-42.987l424.026-0.012c31.487 0 43.987 11 43.987 43.999v297.983c0 28.018-11.667 41.987-41.987 41.987zM191.729 447.441h127.077l-0.013-96h-127.064v96zM479.5 18.93c0-10.62-12.054-19.23-26.923-19.23h-394.154c-14.869 0-26.923 8.61-26.923 19.23v281.539c0 10.621 12.054 19.231 26.923 19.231h394.154c14.869 0 26.923-8.61 26.923-19.231v-281.539z" />
<glyph unicode="&#xe635;" d="M224 448.2h32v-416h-32v416zM32 256.2h416v-32h-416v32z" />
<glyph unicode="&#xe636;" d="M509.214 102.442c-45.578 79.001-117.151 99.934-117.151 99.934-20.257 8.439-33.086-8.778-33.086-8.778l-41.442-45.578c-3.545-3.545-5.823-0.506-5.823-0.506-85.079 65.833-133.695 129.136-133.695 129.136-2.785 3.545 0.76 6.331 0.76 6.331 4.558 5.064 45.831 37.728 45.831 37.728 11.141 8.609 10.128 22.282 10.128 22.282-28.866 112.931-106.348 136.563-106.348 136.563-8.778 4.052-16.543-1.013-16.543-1.013-79.002-41.188-99.817-94.861-99.817-94.861-17.246-36.647-2.143-69.556-2.143-69.556 99.258-244.094 350.104-340.312 350.104-340.312 31.398-14.518 65.496 3.714 65.496 3.714 37.138 17.218 82.378 96.557 82.378 96.557 8.441 12.83 1.351 28.359 1.351 28.359zM360.327 6.222c-228.901 99.258-318.030 303.852-318.030 303.852-40.514 82.040 80.52 139.265 80.52 139.265 59.251-30.385 81.533-105.841 81.533-105.841-73.937-48.616-57.731-71.911-57.731-71.911 67.86-97.232 154.963-150.912 154.963-150.912 32.411-21.27 73.938 53.68 73.938 53.68 82.039-22.282 106.348-84.065 106.348-84.065-57.732-125.593-121.541-84.068-121.541-84.068z" />
<glyph unicode="&#xe637;" d="M418.091 250.081l-153.648 178.259c-6.242 7.245-17.061 7.935-24.098 1.461-7.040-6.473-7.738-17.529-1.5-24.778l153.792-178.426 22.922-26.252c42.427-49.401 39.799-94.152-8.274-140.823-45.037-37.84-87.636-33.048-129.311 15.481l-196.699 229.051c-30.119 35.073-5.739 77.749 10.79 92.924 11.222 11.254 26.271 17.075 41.856 16.518 16.511-0.591 31.987-8.352 43.572-21.84l166.975-194.441c30.409-35.412 15.377-49.214 4.618-59.091-9.271-8.513-26.561-24.385-53.094 6.515l-126.4 147.774c0 0-11.251 12.853-11.187 12.753-6.304 6.706-16.662 7.314-23.514 1.011-6.864-6.312-7.581-16.93-1.834-24.179-0.079 0.077 137.423-160.78 137.423-160.78 40.581-47.256 80.037-28.768 101.167-9.364 40.832 37.486 21.065 82.304-1.673 108.782l-166.973 194.439c-17.808 20.737-41.875 32.666-67.765 33.594-24.834 0.888-48.998-8.576-66.302-25.963-31.057-28.49-56.227-91.932-13.168-142.073l196.698-229.052c53.086-61.818 117.666-68.561 177.175-18.492 61.941 60.079 65.683 127.501 11.43 190.677l-22.978 26.315z" />
<glyph unicode="&#xe638;" d="M351.647 447.46c-37.646 0-63.168-30.521-63.168-68.167v-311.29c0-37.646 25.521-68.166 63.168-68.166 37.649 0 64.671 30.52 64.671 68.166v311.29c0 37.646-27.022 68.167-64.671 68.167zM384.424 63.162c0-17.652-14.31-31.962-31.962-31.962s-31.962 14.31-31.962 31.962v320.358c0 17.652 14.31 31.962 31.962 31.962s31.962-14.31 31.962-31.962v-320.358zM159.647 447.46c-37.646 0-63.168-30.521-63.168-68.167l0.001-311.29c0-37.646 25.521-68.166 63.167-68.166 37.65 0 64.671 30.52 64.671 68.166v311.29c0 37.646-27.022 68.167-64.671 68.167zM192.424 63.162c0-17.652-14.31-31.962-31.962-31.962s-31.962 14.31-31.962 31.962v320.358c0 17.652 14.31 31.962 31.962 31.962s31.962-14.31 31.962-31.962v-320.358z" />
<glyph unicode="&#xe639;" d="M385.385 221.231c-7.347-11.648-120.134-191.428-130.075-248.988-0.122-0.238-0.238-0.301-0.337-0.287-0.099-0.014-0.215 0.049-0.337 0.287-9.942 57.561-122.729 237.34-130.077 248.988-18.467 26.374-29.447 58.539-29.447 93.382 0 7.456 0.673 14.738 1.628 21.923 1.671 18.32 6.876 34.299 14.364 48.297 25.711 53.86 79.926 97.461 142.77 95.289 0.372-0.013 0.73-0.039 1.1-0.053 0.369 0.015 0.728 0.041 1.099 0.053 62.843 2.172 117.060-41.429 142.771-95.289 7.487-13.998 12.693-29.977 14.363-48.297 0.955-7.185 1.628-14.467 1.628-21.923-0.002-34.843-10.981-67.008-29.45-93.382zM380.512 331.555c-1.32 15.046-5.435 28.17-11.352 39.667-18.138 39.488-54.204 70.84-97.086 77.116-5.155 0.754-10.415 1.363-15.745 1.146-0.458-0.019-0.901-0.053-1.357-0.075-0.456 0.022-0.899 0.057-1.357 0.075-5.33 0.217-10.589-0.392-15.746-1.146-42.881-6.276-78.947-37.628-97.085-77.116-5.917-11.497-10.031-24.621-11.352-39.667-0.754-5.901-1.286-11.882-1.286-18.006 0-28.617 8.676-55.036 23.272-76.697 5.807-9.566 95.334-147.224 103.192-194.5 0.142-0.34 0.271-0.326 0.361-0.234 0.090-0.092 0.219-0.105 0.361 0.234 7.858 47.275 97.385 184.933 103.192 194.5 14.595 21.661 23.272 48.080 23.272 76.697 0.002 6.124-0.53 12.105-1.284 18.006zM255.089 254.695c-0.040 0-0.078 0.002-0.117 0.003-0.040-0.001-0.078-0.003-0.117-0.003-35.261 0-63.85 29.050-63.85 64.881 0 35.83 28.589 64.871 63.85 64.871 0.040 0 0.078-0.002 0.117-0.003 0.040 0 0.078 0.003 0.117 0.003 35.261 0 63.85-29.041 63.85-64.871 0-35.832-28.588-64.881-63.85-64.881zM255.092 349.95c-0.041 0-0.080-0.003-0.12-0.003s-0.080 0.003-0.12 0.003c-16.51 0-29.895-13.597-29.895-30.373s13.385-30.378 29.895-30.378c0.041 0 0.080 0.003 0.12 0.003s0.080-0.003 0.12-0.003c16.509 0 29.895 13.602 29.895 30.378s-13.385 30.373-29.895 30.373z" />
<glyph unicode="&#xe63a;" d="M223.926 319.883h-31.97v-31.969h31.97v31.969zM255.895 287.914h-31.969v-31.975h31.969v31.975zM287.861 255.939h-31.967v-31.968h31.967v31.968zM319.836 223.971h-31.975v-31.97h31.975v31.97zM287.861 160.047v31.955h-31.967v-31.955h31.967zM255.895 128.094v31.953h-31.969v-31.953h31.969zM223.926 96.093v32.001h-31.97v-32.001h31.97z" />
<glyph unicode="&#xe63b;" d="M257.091 96.138h31.969v31.969h-31.969v-31.969zM289.060 128.107h31.97v31.975h-31.97v-31.975zM321.029 160.082h31.969v31.968h-31.969v-31.968zM352.996 224.019v-31.969h31.975v31.969h-31.975zM321.029 255.974v-31.955h31.967v31.955h-31.967zM289.061 287.928v-31.953h31.969v31.953h-31.969zM257.091 319.928v-32h31.969v32h-31.969zM225.121 351.882v-31.954h31.97v31.954h-31.97zM225.121 64.137h31.97v32.001h-31.97v-32.001zM193.15 64.138v-31.938h31.971v31.938h-31.971zM161.18 32.2v-31.938h31.971v31.938h-31.971zM129.209 0.262v-31.938h31.971v31.938h-31.971zM193.15 383.837v-31.955h31.971v31.955h-31.971zM161 415.792v-31.955h31.971v31.955h-31.971zM129 448.2v-31.955h31.971v31.955h-31.971z" />
<glyph unicode="&#xe63c;" d="M223.94 96.138h31.969v31.969h-31.969v-31.969zM255.91 128.107h31.969v31.975h-31.969v-31.975zM287.879 160.082h31.968v31.968h-31.968v-31.968zM319.847 224.019v-31.97h31.974v31.97h-31.974zM287.879 255.974v-31.955h31.968v31.955h-31.968zM255.91 287.928v-31.953h31.969v31.953h-31.969zM223.94 319.928v-32h31.969v32h-31.969zM191.971 351.882v-31.954h31.969v31.954h-31.969zM191.971 64.138h31.969v32.001h-31.969v-32.001zM160 32.2h31.971v31.938h-31.971v-31.938zM160 383.837v-31.955h31.971v31.955h-31.971z" />
<glyph unicode="&#xe63d;" d="M301.907 474.175l-191.388-263.996c0 0-14.542-14.912-14.542-32.16 0 0-2.705-17.921 20.98-17.921h135.895c0 0 7.099-0.354 1.688-12.521l-31.8-111.952c0 0-10.479-29.794-10.479-46.027 0 0-1.358-21.321 17.247-21.321 0 0 5.753-2.704 23.344 24.321l182.241 251.709c0 0 12.854 13.562 12.854 29.475 0 0-2.705 14.873-28.764 14.873h-115.667c0 0-17.6-3.036-14.212 5.080l42.634 131.299c0 0 8.115 23.354 8.115 41.606 0 0-2.053 13.88-20.637 13.88 0-0.001-8.035 3.15-17.509-6.345z" />
<glyph unicode="&#xe63e;" d="M407.387 272.179l-55.72 16.688 0.060-31.629-62.208-66.12-65.019-62.918h-32.5l16.458-54.949c13.265-55.418-35.393-88.594-35.393-88.594-17.747-16.713-52.674-17.541-52.674-17.541-10.267-0.373-15.901 1.781-18.794 4.959l-6.345 13.344 16.886 15.383 4.134 3.857c36.573 30.723 16.375 51.564 16.375 51.564l-22.174 22.137-20.887 20.924c0 0-20.842 20.197-51.564-16.375l-3.856-4.135-13.384-14.887-15.345 4.346c-3.177 2.893-5.331 8.527-4.958 18.793 0 0 0.829 34.928 17.54 52.674 0 0 33.178 48.66 88.595 35.395l53.386-14.895 0.273 31.836 64.207 64.12 63.12 64.208 32.4-0.145-14.458 53.805c-13.265 55.417 35.395 88.595 35.395 88.595 17.746 16.71 52.674 17.54 52.674 17.54 10.266 0.373 15.901-1.782 18.793-4.959l4.345-4.345-20.887-18.384-4.135-3.856c-36.572-30.722-10.375-57.564-10.375-57.564l22.176-22.138 20.886-20.923c0 0 26.086-32.29 55.564 12.375l3.856 4.134 18.384 20.887 6.344-6.345c3.178-2.893 5.332-8.527 4.959-18.794 0 0-0.829-34.927-17.541-52.674 0 0-33.176-48.659-88.593-35.394z" />
<glyph unicode="&#xe63f;" d="M282.479 6.319c0 0 213.353 154.031 232.408 299.689 0 0 7.409 122.933-107.588 137.976 0 0-83.466 20.89-148.421-61.594 0 0-55.197 54.877-113.973 62.559 0 0-126.91 10.108-143.237-114.689 0 0-38.372-137.881 245.729-323.988 0.001 0 20.299-12.64 35.082 0.047z" />
<glyph unicode="&#xe640;" d="M408.671 327.98c0-49.912-44.136-115.082-44.136-115.082-16.088-28.059-14.439-42.488-14.439-42.488 0-30.882-15.491-47.582-21.536-52.927-3.659-1.489-10.24-5.072-10.24-9.268 0-4.106 6.476-7.63 10.016-9.173v-4.195c-3.54-1.541-10.016-5.066-10.016-9.174 0-4.16 6.539-7.727 10.152-9.235l0.068-4.049c-3.647-1.491-10.221-5.072-10.221-9.259 0-4.305 6.725-7.964 10.54-9.376l0.063-3.769c-3.849-1.393-10.604-5.069-10.604-9.399 0-4.331 6.756-8.007 10.604-9.399-0.481-5.254-1.677-10.107-3.225-14.451 0.143-0.058 0.227-0.081 0.227-0.081-0.438-0.965-0.885-1.903-1.335-2.828-4.949-12.047-12.151-19.467-12.151-19.467l0.001 0.121c-24.996-30.884-57.056-27.326-57.056-27.326l0.003 512.791c5.112 0.307 8.084 0.25 8.084 0.25 154.278-17.738 145.201-152.216 145.201-152.216zM198.331-5.519v-0.121c0 0-7.201 7.42-12.15 19.467-0.45 0.925-0.896 1.863-1.334 2.828 0 0 0.084 0.023 0.226 0.081-1.546 4.344-2.743 9.197-3.224 14.451 3.849 1.393 10.605 5.068 10.605 9.399 0 4.33-6.755 8.007-10.604 9.399l0.064 3.769c3.815 1.412 10.54 5.071 10.54 9.376 0 4.187-6.573 7.768-10.222 9.259l0.068 4.049c3.613 1.509 10.154 5.075 10.154 9.235 0 4.107-6.477 7.633-10.016 9.174v4.195c3.54 1.543 10.016 5.066 10.016 9.173 0 4.195-6.583 7.778-10.241 9.268-6.046 5.345-21.538 22.045-21.538 52.927 0 0 1.649 14.43-14.438 42.488 0 0-44.137 65.17-44.137 115.082 0 0-9.076 134.478 145.2 152.215 0 0 2.972 0.058 8.084-0.25l0.001-512.791c0 0.001-32.057-3.557-57.054 27.327z" />
<glyph unicode="&#xe641;" d="M384.358 222.298l-129.833 128.8 130.007 129.102 127.961-129.859-128.135-128.043zM224.163 320.294l127.837-128.094-127.828-160.548-190.848-64.452-32.649 32.903 63.669 193.187c0 0 61.646 48.24 159.494 126.816l0.325 0.188zM159.453 127.825h-63.108v-64.125h63.108v64.125z" />
<glyph unicode="&#xe642;" d="M159.083-32.174c0 0 0.294 3.904-0.145 16.538-0.824 23.648 18.229 66.669-124.438 205.336 0 0-68.667 66.5-2.5 98.5 0 0 32 14.167 63.833-52.5 0 0 41.667-62 46.667 18.667 0 0 4.651 42.849-24.041 83.234 0 0-32.219 47.239-15.922 87.954 0 0 24.781 42.481 53.108 9.912 0 0 20.446-30.851 30.445-65.549 0 0 11.181-63.96 37.404-81.717 0 0-0.244 148.641 0.704 169 0 0 3.639 22.766 31.325 22.766 0 0 34.623 7.443 32.502-61.623l0.127-129.977c0 0 31.376-9.333 31.376 32.707l0.257 90.151c0 0-2.617 36.991 30.631 36.991 0 0 35.87 8.818 35.87-64.376l-0.452-88.11c0 0 40.651-43.14 49.157 9.987 0 0-7.49 64.984 45.010 65.158 0 0 44.24 0.717 27.239-69.412 0 0-30.71-111.561-92.349-187.032 0 0-66.056-75.405-62.859-125.354l-0.32-21.25h-192.629z" />
<glyph unicode="&#xe643;" d="M255.978-32.036c-141.188 0-255.654 114.461-255.654 255.654 0 141.206 114.466 256.654 255.654 256.654s255.643-115.449 255.643-256.654c0-141.193-114.455-255.654-255.643-255.654zM349.552 288.365h-186.552c-37.090 0-67.161-24.073-67.161-61.157 0-37.096 30.071-67.165 67.161-67.165h186.552c37.097 0 67.167 30.069 67.167 67.165 0 37.084-30.071 61.157-67.167 61.157z" />
<glyph unicode="&#xe644;" d="M512.904 307.201c-18.962-145.657-239.244-300.689-239.244-300.689-14.712-12.688-34.91-0.048-34.911-0.048-282.725 186.108-236.578 324.989-236.578 324.989 16.248 132.797 142.543 114.689 142.543 114.689 68.443-7.682 113.42-62.559 113.42-62.559 64.641 77.484 147.703 61.594 147.703 61.594 114.44-15.042 107.067-137.976 107.067-137.976zM395.903 406.309c0 0-66.434 6.312-139.136-78.148 0 0-62.528 79.225-135.657 76.855 0 0-85.477-2.591-80.58-101.066 0 0-2.378-114.066 206.792-250.482 0 0 8.975-7.266 18.863 0.034 0 0 197.886 140.905 208.928 253.671 0.002 0 5.457 88.11-79.21 99.136z" />
<glyph unicode="&#xe645;" d="M255.971 160.471h-31.97v-31.97h31.97v31.97zM224.001 192.444h-31.969v-31.975h31.969v31.975zM192.032 224.413h-31.967v-31.969h31.967v31.969zM128.091 256.383v-31.97h31.975v31.97h-31.975zM160.065 288.338v-31.955h31.967v31.955h-31.967zM192.032 320.291v-31.953h31.97v31.953h-31.97zM224.001 352.292v-32h31.97v32h-31.97zM255.971 384.245v-31.953h31.97v31.954l-31.97-0.001zM287.94 128.502h-31.97v-32.001h31.97v32.001zM319.912 96.501h-31.972v-31.938h31.972v31.938zM287.94 416.2v-31.955h31.972v31.955h-31.972zM320.001 64.292h32v-32h-32v32zM352.001 32.292h32v-32h-32v32zM320.001 448.2h32v-32h-32v32zM352.001 480.2h32v-32h-32v32z" />
<glyph unicode="&#xe646;" d="M492.929-31.8h-467.859c-15.193 0-25.070 9.878-25.070 22.060v468.88c0 12.184 9.877 22.060 25.070 22.060h467.858c9.194 0 19.072-9.877 19.072-22.060v-468.88c0-12.182-9.878-22.060-19.071-22.060zM478.729 422.215c0 14.16-11.47 25.63-25.627 25.63h-393.745c-14.159 0-25.628-11.47-25.628-25.63v-395.096c0-14.159 11.469-25.629 25.628-25.629h393.743c14.158 0 25.628 11.47 25.628 25.629l0.001 395.096zM360.453 96.327l-264.525-0.22 56.678 70.866c45.509 55.85 60.742 4.836 60.742 4.836 8.485-36.109 42.45 19.367 42.45 19.367l25.642 45.791c25.062 42.399 59.297 3.447 59.297 3.447l48.123-57.528c28.642-33.186 27.045-47.36 27.045-47.36-0.002-48.947-55.452-39.199-55.452-39.199zM176.456 257.008c-26.203 0-47.456 21.24-47.456 47.468 0 26.215 21.252 47.455 47.456 47.455 26.216 0 47.468-21.24 47.468-47.455-0.001-26.228-21.252-47.468-47.468-47.468z" />
<glyph unicode="&#xe647;" d="M284.238-1.693c-40.296 0.627-60.862 6.601-92.633 23.033l-154.334-18.877c-54.609-6-30.78 40.027-30.78 40.027 19.141 46.335 51.567 92.052 62.669 111.682-7.293 22.228-11.37 42.919-11.37 67.583 0 125.062 101.382 226.445 226.448 226.445 125.061 0 226.444-101.383 226.444-226.445 0.002-125.064-96.322-225.472-226.444-223.448zM283.332 410.855c-107.396 0-184.456-79.466-184.456-188.595 0-21.521 5.525-52.354 11.789-71.75-13.879-20.661-25.366-46.052-45.852-81.293 0 0-23.813-32.018 17.444-23.785l109.932 18.646c28.151-16.105 56.536-26.412 91.145-26.412 107.393 0 186.451 70.702 186.451 184.597 0 109.125-82.618 188.592-186.453 188.592z" />
<glyph unicode="&#xe648;" d="M447.676 222.985v-186.749c0 0-5.117-67.835-66.020-67.835h-252.715c0 0-64.659 5.936-64.659 65.835v187.749l-65.004 0.588 256.232 255.426 256.212-255.014h-64.046zM256.5 431.7l-159-163.5c0 0 0-140.5 0-204.5s44-63 44-63h232c41 0 43 64 43 64v204.5l-160 162.5z" />
<glyph unicode="&#xe649;" d="M384.777 96.848v-128.648h-385.808v383.797h129.657v129.234h383.374v-384.383h-127.223zM127.944 287.082h-96.694v-286.599h320.565v96.367h-223.871v190.232zM479.057 415.997h-319.15v-288.197h319.15v288.197z" />
<glyph unicode="&#xe64a;" d="M481.241 288.736h-65.515v122.387c0 16.986-14.771 36.758-31.758 36.758h-257.814c-16.986 0-30.758-19.772-30.758-36.758v-122.387h-65.516c-16.986 0-30.755-13.771-30.755-30.758v-227.705c0-16.986 13.769-30.755 30.755-30.755h451.362c16.988 0 30.758 13.769 30.758 30.755v227.705c-0.001 16.988-13.771 30.758-30.759 30.758zM127.532 416.742h257.061v-128.72h-257.061v128.72zM32.261 31.41l-1 224.546h447.41l1.289-224.547-447.699 0.001zM384.124 191.282h32v32h-32v-32z" />
<glyph unicode="&#xe64b;" d="M0 64.276v320.39h512.822v-320.39h-512.822zM43.959 352.7l212.246-121 212.232 120.479-424.478 0.521zM480.082 319.172l-222.303-126.472-225.341 128 0.31-224.412h447.334v222.884z" />
<glyph unicode="&#xe64c;" d="M286.556-0.693c-40.296 0.627-60.862 6.601-92.633 23.033l-154.335-18.877c-54.609-6-30.78 40.027-30.78 40.027 19.141 46.335 51.567 92.052 62.669 111.682-7.293 22.228-11.37 42.919-11.37 67.583 0 125.062 101.382 226.445 226.449 226.445 125.060 0 226.444-101.383 226.444-226.445 0.001-125.064-96.322-225.472-226.444-223.448zM285.649 411.855c-107.396 0-184.456-79.466-184.456-188.595 0-21.521 5.525-52.354 11.789-71.75-13.879-20.661-25.366-46.052-45.852-81.293 0 0-23.813-32.018 17.444-23.785l109.932 18.646c28.151-16.105 56.536-26.412 91.145-26.412 107.393 0 186.451 70.702 186.451 184.597 0.001 109.125-82.618 188.592-186.453 188.592z" />
<glyph unicode="&#xe64d;" d="M416.412 426.131v-409.597c0-28.277-22.926-48.701-51.199-48.702h-221.869c-28.274 0-47.199 20.425-47.199 48.702v409.597c0 28.278 22.925 53.702 51.199 53.702h217.868c28.274 0 51.2-25.424 51.2-53.702zM127.98 448.291v-447.916h256.122v447.916h-256.122zM232.709 46.7c0 13.199 10.699 23.894 23.896 23.894s23.895-10.694 23.895-23.894c0-13.197-10.695-23.896-23.895-23.896-13.197 0-23.896 10.699-23.896 23.896z" />
<glyph unicode="&#xe64e;" d="M128.050 288.7h32v-32h-32v32zM160.050 384.7h32v-32h-32v32zM192.050 32.7c0-17.673-14.327-32-32-32s-32 14.327-32 32c0 17.673 14.327 32 32 32s32-14.327 32-32zM511.928 160.8l0.072 288.243-512-0.343 0.152-32h63.983v-319.774h224.381v31.405h-192.458v31.995l415.87 0.474zM480 288.25h-31.95v-31.55h31.95v-31.95h-31.95v31.95h-31.999v32h31.999v31.5h31.95v-31.95zM480 352.25h-31.95v-31.55h-31.999v32h31.999v31.5h31.95v-31.95zM96.050 192.7v32h32v32h-32v32h32v32h-32v32h32v32h-32v32h32v-32h32v32h32v-32h32v32h32v-32h32v32h32v-32h-31.999v-32h32v32h31.999v32h32v-32h-31.999v-32h32v32h31.999v32h32v-32h-32v-32h-31.999v-32h31.999v-32h-31.999v-32h31.999v-32h32v-32h-32v32h-31.999v32h-32v-32h31.999v-32h-32v32h-31.999v32h-32v-32h31.999v-32h-32v32h-32v-32h-32v32h-32v-32h-32v32h-32v-32h-32zM128.050 352.7h32v-32h-32v32zM288.050 32.7c0-17.673-14.327-32-32-32s-32 14.327-32 32c0 17.673 14.327 32 32 32s32-14.327 32-32zM160.050 256.7h32v-32h-32v32zM160.050 320.7h32v-32h-32v32zM224.050 384.7h32v-32h-32v32zM192.050 352.7h32v-32h-32v32zM224.050 256.7h32v-32h-32v32zM352.051 320.7h32v-32h-32v32zM288.051 320.7h32v-32h-32v32zM320.051 288.7h32v-32h-32v32zM256.051 352.7h32v-32h-32v32zM224.050 320.7h32v-32h-32v32zM320.051 352.7h32v-32h-32v32zM192.050 288.7h32v-32h-32v32zM256.050 288.7h32v-32h-32v32z" />
<glyph unicode="&#xe64f;" d="M383.79 288.2v31.971h-31.97v-31.971h31.97zM351.822 256.231v31.969h-31.975v-31.969h31.975zM319.848 224.263v31.968h-31.969v-31.968h31.969zM287.879 192.29v31.974h-31.97v-31.974h31.97zM223.954 224.263h31.955v31.968h-31.955v-31.968zM192.001 256.231h31.953v31.969h-31.953v-31.969zM160 288.2h32v31.969h-32v-31.969zM128.046 352.139v-31.971h31.954v31.971h-31.954zM415.791 320.169v31.971h-32.001v-31.971h32.001zM447.729 352.139v31.971h-31.938v-31.971h31.938zM96.092 352.139h31.955v31.971h-31.955v-31.971zM351.82 128.2v-31.971h31.97v31.971h-31.97zM319.848 160.169v-31.969h31.975v31.969h-31.975zM287.879 192.137v-31.968h31.969v31.968h-31.969zM255.909 224.11v-31.974h31.97v31.974h-31.97zM223.954 160.169h31.955v31.968h-31.955v-31.968zM192.001 128.2h31.953v31.969h-31.953v-31.969zM160 96.231h32v31.969h-32v-31.969zM128.047 64.261h31.953v31.971h-31.954l0.001-31.971zM383.79 96.231v-31.971h32.001v31.971h-32.001zM415.791 64.261v-31.971h31.938v31.971h-31.938zM96.092 32.29h31.955v31.971h-31.955v-31.971z" />
<glyph unicode="&#xe650;" d="M383.79 255.959v31.97h-31.969v-31.97h31.969zM351.821 223.99v31.969h-31.975v-31.969h31.975zM319.847 192.022v31.968h-31.968v-31.968h31.968zM287.879 160.049v31.974h-31.97v-31.974h31.97zM223.954 192.022h31.955v31.968h-31.955v-31.968zM192.001 223.99h31.953v31.969h-31.953v-31.969zM160 255.959h32v31.97h-32v-31.97z" />
<glyph unicode="&#xe651;" d="M351.82 224.215v-31.97h31.97v31.97h-31.97zM319.848 192.245v-31.969h31.975v31.969h-31.975zM287.879 160.276v-31.967h31.969v31.967h-31.969zM255.909 96.335h31.97v31.975h-31.97v-31.975zM223.954 128.309h31.955v31.967h-31.955v-31.967zM192.001 160.276h31.953v31.97h-31.953v-31.97zM160 192.245h32v31.97h-32v-31.97zM128.047 224.215h31.953v31.97h-31.954l0.001-31.97zM383.79 256.185v-31.97h32.001v31.97h-32.001zM415.791 288.156v-31.971h31.938v31.971h-31.938zM96.092 256.185h31.955v31.971h-31.955v-31.971zM448 320.245h32v-32h-32v32zM480 352.245h32v-32h-32v32zM64.092 320.245h32v-32h-32v32zM32.092 352.245h32v-32h-32v32z" />
<glyph unicode="&#xe652;" d="M351.821 255.988v-31.97h31.969v31.97h-31.969zM319.847 224.018v-31.969h31.975v31.969h-31.975zM287.879 192.050v-31.968h31.968v31.968h-31.968zM255.909 128.108h31.97v31.974h-31.97v-31.974zM223.954 160.082h31.955v31.968h-31.955v-31.968zM192.001 192.050h31.953v31.969h-31.953v-31.969zM160 224.018h32v31.97h-32v-31.97zM128.047 255.988h31.953v31.97h-31.954v-31.97zM383.79 287.958v-31.97h32.001v31.97h-32.001zM415.791 319.929v-31.971h31.938v31.971h-31.938zM96.092 287.958h31.955v31.971h-31.955v-31.971z" />
<glyph unicode="&#xe653;" d="M479.39 32.656h-443.49c-34.414 0-36.9 29.618-36.9 29.618v273.218c0 18.423 12.011 17.423 12.011 17.423h53.001v49.458c0 10.404 9.613 14.408 9.613 14.408h417.184c20.81 0 21.602-12.802 21.602-12.802v-339.314c-0.001-35.715-33.021-32.009-33.021-32.009zM31.977 320.265v-239.010c0 0-0.143-17.602 16.19-17.602 0 0 15.715-0.953 15.715 17.404l0.803 239.208h-32.708zM480.809 384.050h-385.252v-319.73h369.438c0 0 15.813-3.62 15.813 19.203v300.527zM287.624 224.188h160.649v-128.538h-160.649v128.538zM288 288.2h160v-32h-160v32zM288 352.2h160v-32h-160v32zM127 128.2h129v-32h-129v32zM127 192.2h129v-32h-129v32zM126.833 352.2h130.461v-128.562h-130.461v128.562z" />
<glyph unicode="&#xe654;" d="M399.416 160.321c-27.022 0-50.895-13.425-65.358-33.955l-142.247 80.695c0.003 0.282 0.021 0.561 0.021 0.844 0 4.962-0.475 9.811-1.341 14.521l153.497 88.438c14.369-13.846 33.896-22.376 55.428-22.376 44.137 0 79.918 35.779 79.918 79.917s-35.781 79.917-79.918 79.917-79.916-35.781-79.916-79.917c0-7.826 1.145-15.38 3.241-22.528l-149.851-86.337c-14.659 17.293-36.528 28.283-60.974 28.283-44.136-0.001-79.916-35.782-79.916-79.918s35.78-79.917 79.917-79.917c28.992 0 54.377 15.439 68.385 38.544l139.521-79.148c-0.199-2.302-0.322-4.625-0.322-6.979 0-44.137 35.779-79.917 79.916-79.917s79.918 35.78 79.918 79.917-35.782 79.916-79.919 79.916zM399.777 404.776c20.287 0 36.734-16.447 36.734-36.735s-16.447-36.734-36.734-36.734c-20.289 0-36.734 16.446-36.734 36.734s16.445 36.735 36.734 36.735zM112.277 170.805c-20.288 0-36.735 16.447-36.735 36.735s16.447 36.734 36.735 36.734 36.735-16.446 36.735-36.734-16.447-36.735-36.735-36.735zM399.777 43.305c-20.289 0-36.734 16.447-36.734 36.735s16.445 36.735 36.734 36.735c20.287 0 36.734-16.447 36.734-36.735s-16.447-36.735-36.734-36.735z" />
<glyph unicode="&#xe655;" d="M511.5 96.7c0-17.673-14.327-32-32-32h-448c-17.673 0-32 14.327-32 32h63.801v233.615c0 28.278 22.924 53.702 51.198 53.702h282c28.274 0 51.2-25.424 51.2-53.702v-233.615h63.801zM415.389 352.474h-320.253v-255.774h320.252v255.774z" />
<glyph unicode="&#xe656;" d="M480 95.7h-31.801v234.615c0 28.278-22.926 53.702-51.2 53.702h-280.999c-28.274 0-51.198-25.424-51.198-53.702v-234.615h-66.802v-32c0-17.673 14.327-32 32-32h450c17.673 0 32 14.327 32 32v32h-32zM415.889 95.7h-127.889v-14.5h-65v14.5h-126.364v256.774h319.252v-256.774z" />
<glyph unicode="&#xe657;" d="M255.222 191.45l-256 128.402 255.841 128.098 256.715-127.409-256.556-129.091zM253.5 414.7l-191-94 192-96 192 97-193 93zM511.222 287.45v-32l-255.158-128-256.842 127.865v32.135l256.841-126.35 255.159 126.35zM511.222 223.45v-32l-255.158-128-256.842 127.865v32.135l256.841-126.35 255.159 126.35zM511.222 159.45v-32l-255.158-128-256.842 127.865v32.135l256.841-126.35 255.159 126.35z" />
<glyph unicode="&#xe658;" d="M320 289.449l158.679-321.249h-446.358l159.451 320.481-0.195 159.943h-31.903v31.576h191.455v-31.576h-31.129v-159.175zM288.087 448.624h-64.279v-31.893h32.192v-32h-32.192v-32h31.692v-32h-31.692v-32h31.692v-32.75h-45.486l-15.79-31.281h61.276v-33h-77.932l-15.647-31h93.58v-33h-110.237l-15.142-30h125.378v-33h-142.035l-32.775-64.935 350.561 0.207-143.164 288.866v159.786z" />
<glyph unicode="&#xe659;" d="M448.699 426.131v-409.597c0-28.277-22.926-48.701-51.199-48.702h-286c-28.274 0-47.199 20.425-47.199 48.702v409.597c0 28.278 22.925 53.702 51.199 53.702h281.999c28.274 0 51.2-25.424 51.2-53.702zM96.136 448.291v-447.916h320.251v447.916h-320.251zM232.103 47.7c0 13.199 10.699 23.894 23.896 23.894s23.896-10.693 23.896-23.894c0-13.197-10.695-23.896-23.895-23.896-13.198 0-23.897 10.699-23.897 23.896z" />
<glyph unicode="&#xe65a;" d="M445.984 160.783h-382.292c-35.521 0-64.315 28.795-64.315 64.315v0.242c0 35.521 28.794 62.315 64.315 62.315h382.292c35.521 0 64.315-26.794 64.315-62.315v-0.242c0.001-35.52-28.794-64.315-64.315-64.315zM477.77 225.262c0 18.015-14.604 30.618-32.618 30.618h-381.304c-18.014 0-32.618-12.604-32.618-30.618v-0.123c0-18.015 14.604-32.618 32.618-32.618h381.303c18.015 0 32.618 14.604 32.618 32.618v0.123zM63.654 341.244c0 42.519 31.748 71.878 70.909 74.878h242.026c39.163-3 70.904-32.359 70.904-74.878v-21.555h-383.839v21.555zM415.432 351.694c0 0 0.15 32.583-31.85 32.583l-256.075 0.333c-31.667 0-31.519-32.917-31.519-32.917h319.444zM447.493 106.656c0-42.52-31.741-71.878-70.904-74.878h-242.026c-39.161 3-70.909 32.358-70.909 74.878v21.555h383.839v-21.555zM95.988 96.207c0 0-0.148-32.917 31.519-32.917l256.075 0.333c32 0 31.85 32.584 31.85 32.584h-319.444z" />
<glyph unicode="&#xe65b;" d="M512.488 96.032c0-71.234-96.021-64.414-96.021-64.414l-416.46 0.18-0.007 288.254 95.597 0.008v0.804h-0.001l0.010 62.499 288.148-0.075 0.15 33.078 129.096 0.15-0.512-320.484zM31.753 287.7v-224h384.494v224h-384.494zM480.502 95.818l-0.030 288.698-64.347-0.077-0.125-32.048-288.449-0.083-0.045-31.501v-0.744l320.031 0.028 0.918-256.475c35.711 0 32.047 32.202 32.047 32.202z" />
<glyph unicode="&#xe65c;" d="M128 192.557h255.5v32h-255.5v-32zM128 320.557h255.5v32h-255.5v-32zM128 256.556h255.5v32h-255.5v-32zM447.618 160.354v319.633l-383.373 0.213-0.344-319.85h-32.387v-192.15h447.973v192.154h-31.869zM96.496 447.904l320.346 0.181-0.492-287.735h-320.39l0.536 287.554zM447.5 0.845h-384v127.712h384v-127.712zM128 384.057h255.5v32h-255.5v-32z" />
<glyph unicode="&#xe65d;" d="M513 96.2h-97v288h-287v96h-33v-96h-95v-32h95v-288h288v-96h32v96h97v32zM129 96.2v256h255v-256h-255z" />
<glyph unicode="&#xe65e;" d="M0 448.2v-448.226h512.525v448.226h-512.525zM480 32.2h-448v384h448v-384zM96 320.2h32v-32h-32v32zM128 288.2h32v-32h-32v32zM160 224.248h-32v-32h-32v-32.001h32v32h32v31.953h32v32h-32zM224 192.2h128v-32h-128v32z" />
<glyph unicode="&#xe65f;" d="M512 191.903h-31.229v-95.391h-480.771v256.165h480.771v-96.273h31.229v-64.501zM447.605 320.57h-415.439v-192.833h415.439v192.833zM416.495 159.848h-352.16v128.553h352.16v-128.553z" />
<glyph unicode="&#xe660;" d="M64.335 288.401h192.16v-128.552h-192.16v128.552zM480.771 256.404v96.273h-480.771v-256.165h480.771v95.391h31.229v64.501h-31.229zM447.605 127.737h-415.439v192.833h415.439v-192.833z" />
<glyph unicode="&#xe661;" d="M480.771 256.404v96.273h-480.771v-256.165h480.771v95.391h31.229v64.501h-31.229zM447.605 127.737h-415.439v192.833h415.439v-192.833z" />
<glyph unicode="&#xe662;" d="M111.916 255.7c-26.51 0-48-21.49-48-48s21.49-48 48-48 48 21.49 48 48-21.491 48-48 48zM399.916 255.7c-26.51 0-48-21.49-48-48s21.49-48 48-48 48 21.49 48 48-21.49 48-48 48zM488.064 383.602h-464.294c-13.128 0-23.77-10.613-23.77-23.696v-304.412c0-13.084 10.642-23.696 23.77-23.696h464.296c13.131 0 23.766 10.612 23.766 23.696v304.412c-0.002 13.083-10.637 23.696-23.768 23.696zM479.924 83.182c0-10.704-9.305-19.386-20.795-19.386h-406.236c-11.486 0-20.798 8.682-20.798 19.386v249.036c0 10.703 9.312 19.386 20.798 19.386h406.236c11.488 0 20.793-8.683 20.795-19.386v-249.036zM191.916 191.2h128v32.5h-128v-32.5z" />
<glyph unicode="&#xe663;" d="M-0.143 352.366v31.725c0 17.627 14.288 31.919 31.92 31.919h448.303c17.628 0 31.92-14.292 31.92-31.919v-31.725h-512.143zM511.806 65.088c0-17.628-14.293-31.92-31.921-31.92h-446.682c-17.628 0-31.92 14.292-31.92 31.92v223.244h510.522v-223.244zM192.136 224.491h-127.012v-31.919h127.012v31.919zM255.976 224.491h-31.254v-31.258h31.254v31.258zM255.976 128.164h-190.852v-31.92h190.852v31.92z" />
<glyph unicode="&#xe664;" d="M478.171 32.779h-446.682c-17.628 0-31.989 14.646-31.989 32.274v319.649c0 17.627 12.216 31.919 29.849 31.919h448.303c17.628 0 33.849-14.292 33.849-31.919v-319.003c-0.001-17.628-15.702-32.92-33.33-32.92zM31.5 64.7h448v160h-448v-160zM31.5 384.7v-32h448v32h-448zM63.529 160.855v31.92h192.019v-31.92h-192.019zM191.375 97.183h-127.846v31.585h127.846v-31.585zM254.881 96.845h-31.42v31.924h31.42v-31.924z" />
<glyph unicode="&#xe665;" d="M480.592 352.642l-96.227-73.942v105.825h-384.365v-320.649h384.365v105.824l98.252-73.94h30.383v256.882h-32.408zM352.5 95.7h-321v257h321v-257zM480.5 134.7l-96 74v32l96 74v-180z" />
<glyph unicode="&#xe666;" d="M479.834 352.034v-299.569c0-28.771-25.614-52.098-54.386-52.098h-332.991c-28.785 0-60.041 23.326-60.041 52.098v225.278c-0.273 0.292-0.417 1.33-0.417 3.291v95c0 22.091 17.909 40 40 40h56v32h64v-32h128v32h64v-32h54.25c22.092 0 41.75-17.909 41.75-40l-0.165-24zM447.959 383.888h-383.649v-351.504h383.649v351.504zM191.916 287.95h-64v32.084h64v-32.084zM191.916 223.95h-64v32.084h64v-32.084zM191.916 159.951h-64v32.083h64v-32.083zM191.916 95.951h-64v32.083h64v-32.083zM287.916 287.95h-64v32.084h64v-32.084zM287.916 223.95h-64v32.084h64v-32.084zM287.916 159.951h-64v32.083h64v-32.083zM287.916 95.951h-64v32.083h64v-32.083zM383.916 287.95h-64v32.084h64v-32.084zM383.916 223.95h-64v32.084h64v-32.084zM383.916 159.951h-64v32.083h64v-32.083zM383.916 95.951h-64v32.083h64v-32.083z" />
<glyph unicode="&#xe667;" d="M1.131 49.31l159.959-79.979v427.892l-158.957 81.979-1.002-429.892zM128.731 377.617v-355.412l-96.111 50.058-0.398 354.064 96.509-48.71zM353.042 478.201l-1.001-429.889 159.959-79.981v427.891l-158.958 81.979zM480.73 20.206l-96.11 50.058-0.397 354.063 96.508-48.709v-355.412zM192.082 398.221v0l0.001-427.89 128.968 79.981-0.808 429.888-128.161-81.979zM288.511 64.263l-64.111-41.057v361.411l64.508 39.709-0.397-360.063z" />
<glyph unicode="&#xe668;" d="M319.625 256.731h-320.625v-64.125h320.625v64.125zM415.812 160.544h-416.812v-64.094h416.812v64.094zM-1 0.262h513v64.125h-513v-64.125zM415.812 352.919h-416.812v-64.094h416.812v64.094zM-1 449.138v-64.125h513v64.125h-513z" />
<glyph unicode="&#xe669;" d="M414.875 447.824h-414.375v-63.75h414.375v63.75zM414.875 352.199h-414.375v-63.75h414.375v63.75zM96.125 256.574v-63.75h414.375v63.75h-414.375zM0.5 97.199h414.375v63.75h-414.375v-63.75zM0.5 1.574h414.375v63.75h-414.375v-63.75z" />
<glyph unicode="&#xe66a;" d="M499.5-32.050h-500.5v512.5h513v-512.5h-12.5zM31 448.45v-448.5h448v448.5h-448zM64.5 95.95h383v-32h-383v32zM255.5 159.95h192v-32h-192v32zM64.5 222.95h383v-32h-383v32zM255.5 286.95h192v-32h-192v32zM64.5 351.95h383v-32h-383v32zM255.5 415.95h192v-32h-192v32zM64.5 415.95h160v-32h-160v32zM224.5 254.95h-160v32h160v-32zM224.5 127.95h-160v32h160v-32z" />
<glyph unicode="&#xe66b;" d="M501.5-32.3h-502.5v512.5h513v-512.5h-10.5zM31 448.2v-448.5h33v448.5h-33zM415.5 447.7h-320v-448h320v448zM447.5 448.2v-448.5h31.5v448.5h-31.5zM224.5 383.7h-97v32h97v-32zM384.5 319.7h-257v32h257v-32zM224.5 254.7h-97v32h97v-32zM384.5 190.7h-257v32h257v-32zM224.5 127.7h-97v32h97v-32zM384.5 63.7h-257v32h257v-32zM255.5 159.7h129v-32h-129v32zM255.5 286.7h129v-32h-129v32zM255.5 415.7h129v-32h-129v32z" />
<glyph unicode="&#xe66c;" d="M320.167 480.367h-15.217c-0.282 0.18-0.556 0.35-0.812 0.5h-227.085c-7.060 0-12.786-5.586-12.786-12.474v-487.721c0-6.888 5.727-12.472 12.786-12.472h358.226c7.062 0 12.787 5.584 12.787 12.472l0.099 339.696h0.002v32l-128 127.999zM416.167 25.367c0-13.807-11.193-25-25-25h-270c-13.807 0-25 11.193-25 25v398c0 13.807 11.193 25 25 25h174c13.808 0 25-11.193 25-25v-71h71c13.807 0 25-11.193 25-25v-302zM160 288.367h192.5v32h-192.5v-32zM160 224.2h192.5v32h-192.5v-32zM160 160.2h192.5v32h-192.5v-32zM160 96.2h192.5v32h-192.5v-32z" />
<glyph unicode="&#xe66d;" d="M511.448 320.534l-0.099-339.696c0-6.888-5.726-12.473-12.787-12.473h-486.226c-7.059 0-12.786 5.585-12.786 12.473v487.721c0 6.888 5.726 12.474 12.786 12.474h355.086c0.256-0.15 0.529-0.32 0.812-0.5h15.217l128-127.999v-32h-0.003zM31.45 423.533v-398c0-13.807 11.193-25 25-25h6.101v448h-6.101c-13.807 0-25-11.192-25-25zM127.55 448.533h-8.101c-13.807 0-25-11.193-25-25v-398c0-13.807 11.193-25 25-25h8.101v448zM479.45 327.533c0 13.807-11.193 25-25 25h-71v71c0 13.807-11.192 25-25 25h-174c-13.807 0-25-11.193-25-25v-398c0-13.807 11.192-25 25-25h270c13.807 0 25 11.193 25 25v302zM223.283 128.366h192.5v-32h-192.5v32zM223.283 192.366h192.5v-32h-192.5v32zM223.283 256.367h192.5v-32h-192.5v32zM223.283 320.533h192.5v-32h-192.5v32z" />
<glyph unicode="&#xe66e;" d="M447.5 415.95h-384v-64h384v64zM-1 480.45v-512.5h513v512.5h-513zM479-0.050h-448v448.5h448v-448.5zM448.5 319.95h-385v-287h385v287zM415.5 63.95h-320v224h320v-224z" />
<glyph unicode="&#xe66f;" d="M499.5-32.050h-500.5v512.5h513v-512.5h-12.5zM479 448.45h-448v-448.5h448v448.5zM224.5 383.95h-160v32h160v-32zM320.167 319.95h-255.667v32h255.667v-32zM224.5 254.95h-160v32h160v-32zM320.167 190.95h-255.667v32h255.667v-32zM224.5 127.95h-160v32h160v-32zM320.167 63.95h-255.667v32h255.667v-32zM447.5 63.95h-96v352h96v-352zM255.5 159.95h64.667v-32h-64.667v32zM255.5 286.95h64.667v-32h-64.667v32zM255.5 415.95h64.667v-32h-64.667v32z" />
<glyph unicode="&#xe670;" d="M499.5-32.050h-500.5v512.5h513v-512.5h-12.5zM479 448.45h-448v-448.5h448v448.5zM159.5 63.95h-96v352h96v-352zM351.5 383.95h-160v32h160v-32zM447.167 319.95h-255.667v32h255.667v-32zM351.5 254.95h-160v32h160v-32zM447.167 190.95h-255.667v32h255.667v-32zM351.5 127.95h-160v32h160v-32zM447.167 63.95h-255.667v32h255.667v-32zM382.5 159.95h64.667v-32h-64.667v32zM382.5 286.95h64.667v-32h-64.667v32zM382.5 415.95h64.667v-32h-64.667v32z" />
<glyph unicode="&#xe671;" d="M499.5-32.3h-500.5v512.5h513v-512.5h-12.5zM31 448.2v-448.5h448v32h-95.5v384h95.5v32.5h-448zM63.5 415.7h289v-384h-289v384zM95.5 62.7h224v321h-224v-321z" />
<glyph unicode="&#xe672;" d="M448.5 415.95h-385v-287h385v287zM415.5 159.95h-320v224h320v-224zM-1 480.45v-512.5h513v512.5h-513zM479-0.050h-448v448.5h448v-448.5zM447.5 95.95h-384v-64h384v64z" />
<glyph unicode="&#xe673;" d="M380.767 294.012c-180.622 93.22-359.563 37.042-359.563 37.042-23.143-7.24-20.363-27.798-20.363-27.798 0-35.491 44.477-20.363 44.477-20.363 199.24 38.529 305.842-33.358 305.842-33.358 36.849-17.843 44.477 20.363 44.477 20.363 0 14.869-14.868 24.113-14.868 24.113zM154.635 251.345c-155.216 0-137.18-38.917-137.18-38.917 0-26.182 37.042-16.679 37.042-16.679 161.422 36.137 261.365-29.673 261.365-29.673 34.521-18.942 38.917 14.804 38.917 14.804-22.95 58.57-200.145 70.464-200.145 70.464zM139.831 158.642c0 0-118.561 1.81-109.382-29.673 0 0 0.84-21.075 29.672-12.994 0 0 35.103 11.119 100.073 11.119 0 0 83.782-7.24 124.186-33.358 0 0 12.024-8.598 20.363-9.245 0 0 14.804 3.75 14.804 18.553s-61.349 55.596-179.717 55.596z" horiz-adv-x="396" />
<glyph unicode="&#xe674;" d="M306.553 259.879l-151.531 146.877c-18.683 18.748-47.386 20.493-64 3.814-16.614-16.614-14.998-45.382 3.814-64.065l121.73-121.73-121.859-121.73c-18.683-18.748-20.428-47.45-3.814-64.065s45.252-14.933 64.065 3.814l151.531 146.877c8.081 7.952 28.767 41.439 0.065 70.206z" horiz-adv-x="396" />
<glyph unicode="&#xe675;" d="M94.254 189.738l151.531-146.877c18.683-18.748 47.386-20.493 64-3.814 16.614 16.614 14.998 45.382-3.814 64.065l-121.665 121.73 121.794 121.73c18.683 18.748 20.428 47.45 3.814 64.065s-45.252 14.933-64.065-3.814l-151.596-146.877c-8.016-8.016-28.703-41.438 0-70.206z" horiz-adv-x="396" />
<glyph unicode="&#xe676;" d="M397.964 273.067h-149.398v149.915h-98.457v-149.915h-150.109v-98.134h150.109v-149.915h98.457v149.915h149.398z" horiz-adv-x="396" />
<glyph unicode="&#xe677;" d="M333.252 397.188c-50.295 0-89.6-32.517-106.602-93.737 18.554 8.792 52.169 13.382 54.82-17.261s-43.831-109.834-64.258-109.834c-20.363 0-35.491 89.536-40.857 130.457-5.237 40.986-14.739 86.109-53.269 86.109-38.594 0-88.049-60.509-122.829-88.048l18.166-24.824c0 0 25.664 20.235 34.78 18.748 23.402-6.077 43.443-101.43 53.721-137.762 10.214-36.396 22.627-109.834 72.921-109.834 81.26 0 215.855 201.697 215.855 267.507-0.065 43.313-12.154 78.481-62.449 78.481z" horiz-adv-x="396" />
</font>
</defs>
</svg>
